  0
SECTION
  2
HEADER
  9
$ACADVER
  1
AC1009
  9
$INSBASE
 10
0.0
 20
0.0
 30
0.0
  9
$EXTMIN
 10
-763.93399867629989
 20
-872.68899814439987
 30
0.0
  9
$EXTMAX
 10
465.94600132369999
 20
-7.3089981444000003
 30
0.0
  9
$LIMMIN
 10
0.0
 20
0.0
  9
$LIMMAX
 10
0.0
 20
0.0
  9
$ORTHOMODE
 70
     0
  9
$REGENMODE
 70
     1
  9
$FILLMODE
 70
     1
  9
$QTEXTMODE
 70
     0
  9
$MIRRTEXT
 70
     1
  9
$DRAGMODE
 70
     2
  9
$LTSCALE
 40
1.0
  9
$OSMODE
 70
    31
  9
$ATTMODE
 70
     1
  9
$TEXTSIZE
 40
0.0
  9
$TRACEWID
 40
0.05
  9
$TEXTSTYLE
  7
STANDARD
  9
$CLAYER
  8
0
  9
$CELTYPE
  6
CONTINUOUS
  9
$CECOLOR
 62
   256
  9
$DIMSCALE
 40
1.0
  9
$DIMASZ
 40
0.18
  9
$DIMEXO
 40
0.0625
  9
$DIMDLI
 40
0.38
  9
$DIMRND
 40
0.0
  9
$DIMDLE
 40
0.0
  9
$DIMEXE
 40
0.18
  9
$DIMTP
 40
0.0
  9
$DIMTM
 40
0.0
  9
$DIMTXT
 40
0.18
  9
$DIMCEN
 40
0.09
  9
$DIMTSZ
 40
0.0
  9
$DIMTOL
 70
     0
  9
$DIMLIM
 70
     0
  9
$DIMTIH
 70
     1
  9
$DIMTOH
 70
     1
  9
$DIMSE1
 70
     0
  9
$DIMSE2
 70
     0
  9
$DIMTAD
 70
     0
  9
$DIMZIN
 70
     0
  9
$DIMBLK
  1

  9
$DIMASO
 70
     1
  9
$DIMSHO
 70
     1
  9
$DIMPOST
  1

  9
$DIMAPOST
  1

  9
$DIMALT
 70
     0
  9
$DIMALTD
 70
     2
  9
$DIMALTF
 40
25.399999999999999
  9
$DIMLFAC
 40
1.0
  9
$DIMTOFL
 70
     0
  9
$DIMTVP
 40
0.0
  9
$DIMTIX
 70
     0
  9
$DIMSOXD
 70
     0
  9
$DIMSAH
 70
     0
  9
$DIMBLK1
  1

  9
$DIMBLK2
  1

  9
$DIMSTYLE
  2
STANDARD
  9
$DIMCLRD
 70
     0
  9
$DIMCLRE
 70
     0
  9
$DIMCLRT
 70
     0
  9
$DIMTFAC
 40
1.0
  9
$DIMGAP
 40
0.09
  9
$LUNITS
 70
     2
  9
$LUPREC
 70
     4
  9
$SKETCHINC
 40
0.1
  9
$FILLETRAD
 40
0.0
  9
$AUNITS
 70
     0
  9
$AUPREC
 70
     0
  9
$MENU
  1
acad
  9
$ELEVATION
 40
0.0
  9
$PELEVATION
 40
0.0
  9
$THICKNESS
 40
0.0
  9
$LIMCHECK
 70
     0
  9
$BLIPMODE
 70
     0
  9
$CHAMFERA
 40
0.0
  9
$CHAMFERB
 40
0.0
  9
$SKPOLY
 70
     0
  9
$TDCREATE
 40
2454859.8108924651
  9
$TDUPDATE
 40
2454859.8110523261
  9
$TDINDWG
 40
0.0001768634
  9
$TDUSRTIMER
 40
0.0001765046
  9
$USRTIMER
 70
     1
  9
$ANGBASE
 50
0.0
  9
$ANGDIR
 70
     0
  9
$PDMODE
 70
     3
  9
$PDSIZE
 40
-1.0
  9
$PLINEWID
 40
0.0
  9
$COORDS
 70
     2
  9
$SPLFRAME
 70
     0
  9
$SPLINETYPE
 70
     6
  9
$SPLINESEGS
 70
     8
  9
$ATTDIA
 70
     0
  9
$ATTREQ
 70
     1
  9
$HANDLING
 70
     1
  9
$HANDSEED
  5
A0C
  9
$SURFTAB1
 70
     6
  9
$SURFTAB2
 70
     6
  9
$SURFTYPE
 70
     6
  9
$SURFU
 70
     6
  9
$SURFV
 70
     6
  9
$UCSNAME
  2

  9
$UCSORG
 10
0.0
 20
0.0
 30
0.0
  9
$UCSXDIR
 10
1.0
 20
0.0
 30
0.0
  9
$UCSYDIR
 10
0.0
 20
1.0
 30
0.0
  9
$PUCSNAME
  2

  9
$PUCSORG
 10
0.0
 20
0.0
 30
0.0
  9
$PUCSXDIR
 10
1.0
 20
0.0
 30
0.0
  9
$PUCSYDIR
 10
0.0
 20
1.0
 30
0.0
  9
$USERI1
 70
     0
  9
$USERI2
 70
     0
  9
$USERI3
 70
     0
  9
$USERI4
 70
     0
  9
$USERI5
 70
     0
  9
$USERR1
 40
0.0
  9
$USERR2
 40
0.0
  9
$USERR3
 40
0.0
  9
$USERR4
 40
0.0
  9
$USERR5
 40
0.0
  9
$WORLDVIEW
 70
     1
  9
$SHADEDGE
 70
     3
  9
$SHADEDIF
 70
    70
  9
$TILEMODE
 70
     1
  9
$MAXACTVP
 70
    16
  9
$PLIMCHECK
 70
     0
  9
$PEXTMIN
 10
1.0000000000000000E+020
 20
1.0000000000000000E+020
 30
1.0000000000000000E+020
  9
$PEXTMAX
 10
-1.0000000000000000E+020
 20
-1.0000000000000000E+020
 30
-1.0000000000000000E+020
  9
$PLIMMIN
 10
0.0
 20
0.0
  9
$PLIMMAX
 10
12.0
 20
9.0
  9
$UNITMODE
 70
     0
  9
$VISRETAIN
 70
     0
  9
$PLINEGEN
 70
     1
  9
$PSLTSCALE
 70
     0
  0
ENDSEC
  0
SECTION
  2
TABLES
  0
TABLE
  2
VPORT
 70
     2
  0
VPORT
  2
*ACTIVE
 70
     0
 10
0.0
 20
0.0
 11
1.0
 21
1.0
 12
-148.99399867630001
 22
-439.99899814439999
 13
0.0
 23
0.0
 14
1.0
 24
1.0
 15
0.0
 25
0.0
 16
0.0
 26
0.0
 36
1.0
 17
0.0
 27
0.0
 37
0.0
 40
872.56157676348539
 41
1.6343490304709141
 42
50.0
 43
0.0
 44
0.0
 50
0.0
 51
0.0
 71
     0
 72
   100
 73
     1
 74
     1
 75
     0
 76
     0
 77
     0
 78
     0
  0
ENDTAB
  0
TABLE
  2
LTYPE
 70
    11
  0
LTYPE
  2
CONTINUOUS
 70
     0
  3
Solid line
 72
    65
 73
     0
 40
0.0
  0
LTYPE
  2
DOT
 70
     0
  3
. . . . . . . . 
 72
    65
 73
     2
 40
1.0
 49
0.0
 49
-1.0
  0
LTYPE
  2
DASHED
 70
     0
  3
___  ___  ___  ___  
 72
    65
 73
     2
 40
4.0
 49
3.0
 49
-1.0
  0
LTYPE
  2
HIDDEN
 70
     0
  3
__ __ __ __ 
 72
    65
 73
     2
 40
3.0
 49
2.0
 49
-1.0
  0
LTYPE
  2
STITCH
 70
     0
  3
_ _ _ _ 
 72
    65
 73
     2
 40
2.0
 49
1.0
 49
-1.0
  0
LTYPE
  2
CENTER
 70
     0
  3
______  __  ______  __  
 72
    65
 73
     4
 40
43.0
 49
40.0
 49
-1.0
 49
1.0
 49
-1.0
  0
LTYPE
  2
DASHDOT
 70
     0
  3
____ . ____ . 
 72
    65
 73
     4
 40
32.0
 49
30.0
 49
-1.0
 49
0.0
 49
-1.0
  0
LTYPE
  2
BORDER
 70
     0
  3
__ . __ . 
 72
    65
 73
     4
 40
22.0
 49
20.0
 49
-1.0
 49
0.0
 49
-1.0
  0
LTYPE
  2
CUTTING
 70
     0
  3
________   ___   ___   
 72
    65
 73
     6
 40
45.0
 49
40.0
 49
-1.0
 49
1.0
 49
-1.0
 49
1.0
 49
-1.0
  0
LTYPE
  2
PHANTOM
 70
     0
  3
______  __  __  
 72
    65
 73
     6
 40
35.0
 49
30.0
 49
-1.0
 49
1.0
 49
-1.0
 49
1.0
 49
-1.0
  0
LTYPE
  2
DIVIDE
 70
     0
  3
____ . . ____ . . 
 72
    65
 73
     6
 40
23.0
 49
20.0
 49
-1.0
 49
0.0
 49
-1.0
 49
0.0
 49
-1.0
  0
ENDTAB
  0
TABLE
  2
LAYER
 70
     5
  0
LAYER
  2
0
 70
     0
 62
     7
  6
CONTINUOUS
  0
LAYER
  2
┌▓È_1
 70
     0
 62
     7
  6
CONTINUOUS
  0
LAYER
  2
Éíû@É³
 70
     0
 62
     7
  6
CONTINUOUS
  0
LAYER
  2
ë³Æ¨
 70
     0
 62
     7
  6
CONTINUOUS
  0
LAYER
  2
É}ÿg
 70
     0
 62
     7
  6
CONTINUOUS
  0
ENDTAB
  0
TABLE
  2
STYLE
 70
     1
  0
STYLE
  2
STANDARD
 70
     0
 40
0.0
 41
1.0
 50
0.0
 71
     0
 42
0.0
  3
txt
  4
extfont
  0
ENDTAB
  0
TABLE
  2
VIEW
 70
     0
  0
ENDTAB
  0
TABLE
  2
UCS
 70
     0
  0
ENDTAB
  0
TABLE
  2
APPID
 70
     2
  0
APPID
  2
ACAD
 70
     0
  0
APPID
  2
DCO15
 70
     0
  0
ENDTAB
  0
TABLE
  2
DIMSTYLE
 70
     3
  0
DIMSTYLE
  2
STANDARD
 70
     0
  3

  4

  5

  6

  7

 40
1.0
 41
0.18
 42
0.0625
 43
0.38
 44
0.18
 45
0.0
 46
0.0
 47
0.0
 48
0.0
140
0.18
141
0.09
142
0.0
143
25.399999999999999
144
1.0
145
0.0
146
1.0
147
0.09
 71
     0
 72
     0
 73
     1
 74
     1
 75
     0
 76
     0
 77
     0
 78
     0
170
     0
171
     2
172
     0
173
     0
174
     0
175
     0
176
     0
177
     0
178
     0
  0
DIMSTYLE
  2
VELDIM0
 70
     0
  3

  4

  5

  6

  7

 40
1.0
 41
9.0
 42
0.0625
 43
0.38
 44
1.0
 45
0.0
 46
5.0
 47
0.0
 48
0.0
140
9.8954164504999991
141
0.09
142
0.0
143
25.399999999999999
144
1.0
145
0.0
146
1.0
147
0.09
 71
     0
 72
     0
 73
     0
 74
     0
 75
     0
 76
     0
 77
     0
 78
     8
170
     0
171
     2
172
     0
173
     0
174
     0
175
     0
176
     0
177
     0
178
     0
  0
DIMSTYLE
  2
VELDIM1
 70
     0
  3

  4

  5

  6

  7

 40
1.0
 41
9.0
 42
0.0625
 43
0.38
 44
1.25
 45
0.0
 46
5.0
 47
0.0
 48
0.0
140
9.8954164504999991
141
0.09
142
0.0
143
25.399999999999999
144
1.0
145
0.0
146
1.0
147
0.09
 71
     0
 72
     0
 73
     0
 74
     0
 75
     0
 76
     0
 77
     0
 78
     8
170
     0
171
     2
172
     0
173
     0
174
     0
175
     0
176
     0
177
     0
178
     0
  0
ENDTAB
  0
ENDSEC
  0
SECTION
  2
BLOCKS
  0
BLOCK
  8
0
  2
$MODEL_SPACE
 70
     0
 10
0.0
 20
0.0
 30
0.0
  3
$MODEL_SPACE
  1

  0
ENDBLK
  5
E
  8
0
  0
BLOCK
 67
     1
  8
0
  2
$PAPER_SPACE
 70
     0
 10
0.0
 20
0.0
 30
0.0
  3
$PAPER_SPACE
  1

  0
ENDBLK
  5
10
 67
     1
  8
0
  0
BLOCK
  8
0
  2
*D0
 70
     1
 10
0.0
 20
0.0
 30
0.0
  3
*D0
  1

  0
TEXT
  5
33
  8
0
 62
     0
 10
248.13229317060001
 20
-337.46605217220002
 30
0.0
 40
9.8954164504999991
  1
14
 50
90.0
  0
LINE
  5
34
  8
0
 62
     0
 10
231.46363186229999
 20
-338.6452189659999
 30
0.0
 11
251.8785431325
 21
-338.6452189659999
 31
0.0
  0
LINE
  5
35
  8
0
 62
     0
 10
231.46363186229999
 20
-324.64521896600002
 30
0.0
 11
251.8785431325
 21
-324.64521896600002
 31
0.0
  0
LINE
  5
36
  8
0
 62
     0
 10
250.8785431325
 20
-338.6452189659999
 30
0.0
 11
250.8785431325
 21
-338.6452189659999
 31
0.0
  0
LINE
  5
37
  8
0
 62
     0
 10
250.8785431325
 20
-338.6452189659999
 30
0.0
 11
250.8785431325
 21
-324.64521896600002
 31
0.0
  0
LINE
  5
38
  8
0
 62
     0
 10
250.8785431325
 20
-324.64521896600002
 30
0.0
 11
250.8785431325
 21
-338.6452189659999
 31
0.0
  0
LINE
  5
39
  8
0
 62
     0
 10
250.8785431325
 20
-324.64521896600002
 30
0.0
 11
250.8785431325
 21
-324.64521896600002
 31
0.0
  0
LINE
  5
3A
  8
0
 62
     0
 10
250.8785431325
 20
-324.64521896600002
 30
0.0
 11
250.8785431325
 21
-319.6452189659999
 31
0.0
  0
SOLID
  5
3B
  8
0
 62
     0
 10
250.8785431325
 20
-324.64521896600002
 30
0.0
 11
248.6285431325
 21
-315.6452189659999
 31
0.0
 12
253.1285431325
 22
-315.6452189659999
 32
0.0
 13
250.8785431325
 23
-317.8952189659999
 33
0.0
  0
LINE
  5
3C
  8
0
 62
     0
 10
250.8785431325
 20
-338.6452189659999
 30
0.0
 11
250.8785431325
 21
-343.64521896600002
 31
0.0
  0
SOLID
  5
3D
  8
0
 62
     0
 10
250.8785431325
 20
-338.6452189659999
 30
0.0
 11
253.1285431325
 21
-347.64521896600002
 31
0.0
 12
248.6285431325
 22
-347.64521896600002
 32
0.0
 13
250.8785431325
 23
-345.39521896600002
 33
0.0
  0
ENDBLK
  5
3E
  8
0
  0
BLOCK
  8
0
  2
CLUMP0
 70
     0
 10
0.0
 20
0.0
 30
0.0
  3
CLUMP0
  1

  0
LINE
  5
48
  8
┌▓È_1
 62
     5
 10
181.16363186230001
 20
-330.44521896600003
 30
0.0
 11
181.16363186230001
 21
-331.24521896599998
 31
0.0
  0
LINE
  5
49
  8
┌▓È_1
 62
     5
 10
175.2636318623
 20
-337.845218966
 30
0.0
 11
175.2636318623
 21
-330.44521896600003
 31
0.0
  0
LINE
  5
4A
  8
┌▓È_1
 62
     5
 10
180.46363186229999
 20
-337.845218966
 30
0.0
 11
175.2636318623
 21
-337.845218966
 31
0.0
  0
LINE
  5
4B
  8
┌▓È_1
 62
     5
 10
180.46363186229999
 20
-337.845218966
 30
0.0
 11
180.46363186229999
 21
-338.6452189659999
 31
0.0
  0
LINE
  5
4C
  8
┌▓È_1
 62
     5
 10
180.46363186229999
 20
-338.6452189659999
 30
0.0
 11
175.2636318623
 21
-338.6452189659999
 31
0.0
  0
ARC
  5
4D
  8
┌▓È_1
 62
     5
 10
175.2636318623
 20
-337.845218966
 30
0.0
 40
0.8
 50
180.0
 51
270.0
  0
LINE
  5
4E
  8
┌▓È_1
 62
     5
 10
174.46363186229999
 20
-337.845218966
 30
0.0
 11
174.46363186229999
 21
-330.44521896600003
 31
0.0
  0
ARC
  5
4F
  8
┌▓È_1
 62
     5
 10
175.2636318623
 20
-330.44521896600003
 30
0.0
 40
0.8
 50
90.0
 51
180.0
  0
LINE
  5
50
  8
┌▓È_1
 62
     5
 10
223.46363186229999
 20
-338.6452189659999
 30
0.0
 11
223.46363186229999
 21
-337.845218966
 31
0.0
  0
LINE
  5
51
  8
┌▓È_1
 62
     5
 10
228.66363186230001
 20
-337.845218966
 30
0.0
 11
223.46363186229999
 21
-337.845218966
 31
0.0
  0
LINE
  5
52
  8
┌▓È_1
 62
     5
 10
228.66363186230001
 20
-325.44521896600003
 30
0.0
 11
228.66363186230001
 21
-337.845218966
 31
0.0
  0
LINE
  5
53
  8
┌▓È_1
 62
     5
 10
200.2636318623
 20
-325.44521896600003
 30
0.0
 11
228.66363186230001
 21
-325.44521896600003
 31
0.0
  0
LINE
  5
54
  8
┌▓È_1
 62
     5
 10
175.2636318623
 20
-329.64521896600002
 30
0.0
 11
199.46363186229999
 21
-329.64521896600002
 31
0.0
  0
LINE
  5
55
  8
┌▓È_1
 62
     5
 10
175.2636318623
 20
-330.44521896600003
 30
0.0
 11
199.46363186229999
 21
-330.44521896600003
 31
0.0
  0
LINE
  5
56
  8
┌▓È_1
 62
     5
 10
200.2636318623
 20
-329.64521896600002
 30
0.0
 11
200.2636318623
 21
-325.44521896600003
 31
0.0
  0
ARC
  5
57
  8
┌▓È_1
 62
     5
 10
199.46363186229999
 20
-329.64521896600002
 30
0.0
 40
0.8
 50
270.0
 51
0.0
  0
LINE
  5
58
  8
┌▓È_1
 62
     5
 10
199.46363186229999
 20
-329.64521896600002
 30
0.0
 11
199.46363186229999
 21
-325.44521896600003
 31
0.0
  0
ARC
  5
59
  8
┌▓È_1
 62
     5
 10
200.2636318623
 20
-325.44521896600003
 30
0.0
 40
0.8
 50
90.0
 51
180.0
  0
LINE
  5
5A
  8
┌▓È_1
 62
     5
 10
200.2636318623
 20
-324.64521896600002
 30
0.0
 11
228.66363186230001
 21
-324.64521896600002
 31
0.0
  0
ARC
  5
5B
  8
┌▓È_1
 62
     5
 10
228.66363186230001
 20
-325.44521896600003
 30
0.0
 40
0.8
 50
0.0
 51
90.0
  0
LINE
  5
5C
  8
┌▓È_1
 62
     5
 10
228.66363186230001
 20
-338.6452189659999
 30
0.0
 11
223.46363186229999
 21
-338.6452189659999
 31
0.0
  0
LINE
  5
5D
  8
┌▓È_1
 62
     5
 10
229.46363186229999
 20
-325.44521896600003
 30
0.0
 11
229.46363186229999
 21
-337.845218966
 31
0.0
  0
ARC
  5
5E
  8
┌▓È_1
 62
     5
 10
228.66363186230001
 20
-337.845218966
 30
0.0
 40
0.8
 50
270.0
 51
0.0
  0
LINE
  5
5F
  8
┌▓È_1
 62
     5
 10
181.16363186230001
 20
-331.24521896599998
 30
0.0
 11
228.66363186230001
 21
-331.24521896599998
 31
0.0
  0
LINE
  5
60
  8
┌▓È_1
 62
     5
 10
199.46363186229999
 20
-330.44521896600003
 30
0.0
 11
228.66363186230001
 21
-330.44521896600003
 31
0.0
  0
ENDBLK
  5
61
  8
0
  0
BLOCK
  8
0
  2
*D2
 70
     1
 10
0.0
 20
0.0
 30
0.0
  3
*D2
  1

  0
TEXT
  5
68
  8
0
 62
     0
 10
248.13229317060001
 20
-153.46699488050001
 30
0.0
 40
9.8954164504999991
  1
14
 50
90.0
  0
LINE
  5
69
  8
0
 62
     0
 10
231.46363186229999
 20
-154.64616167439999
 30
0.0
 11
251.8785431325
 21
-154.64616167439999
 31
0.0
  0
LINE
  5
6A
  8
0
 62
     0
 10
231.46363186229999
 20
-140.64616167439999
 30
0.0
 11
251.8785431325
 21
-140.64616167439999
 31
0.0
  0
LINE
  5
6B
  8
0
 62
     0
 10
250.8785431325
 20
-154.64616167439999
 30
0.0
 11
250.8785431325
 21
-154.64616167439999
 31
0.0
  0
LINE
  5
6C
  8
0
 62
     0
 10
250.8785431325
 20
-154.64616167439999
 30
0.0
 11
250.8785431325
 21
-140.64616167439999
 31
0.0
  0
LINE
  5
6D
  8
0
 62
     0
 10
250.8785431325
 20
-140.64616167439999
 30
0.0
 11
250.8785431325
 21
-154.64616167439999
 31
0.0
  0
LINE
  5
6E
  8
0
 62
     0
 10
250.8785431325
 20
-140.64616167439999
 30
0.0
 11
250.8785431325
 21
-140.64616167439999
 31
0.0
  0
LINE
  5
6F
  8
0
 62
     0
 10
250.8785431325
 20
-140.64616167439999
 30
0.0
 11
250.8785431325
 21
-135.64616167439999
 31
0.0
  0
SOLID
  5
70
  8
0
 62
     0
 10
250.8785431325
 20
-140.64616167439999
 30
0.0
 11
248.6285431325
 21
-131.64616167439999
 31
0.0
 12
253.1285431325
 22
-131.64616167439999
 32
0.0
 13
250.8785431325
 23
-133.89616167439999
 33
0.0
  0
LINE
  5
71
  8
0
 62
     0
 10
250.8785431325
 20
-154.64616167439999
 30
0.0
 11
250.8785431325
 21
-159.64616167439999
 31
0.0
  0
SOLID
  5
72
  8
0
 62
     0
 10
250.8785431325
 20
-154.64616167439999
 30
0.0
 11
253.1285431325
 21
-163.64616167439999
 31
0.0
 12
248.6285431325
 22
-163.64616167439999
 32
0.0
 13
250.8785431325
 23
-161.39616167439999
 33
0.0
  0
ENDBLK
  5
73
  8
0
  0
BLOCK
  8
0
  2
*D3
 70
     1
 10
0.0
 20
0.0
 30
0.0
  3
*D3
  1

  0
TEXT
  5
77
  8
0
 62
     0
 10
181.1427986562
 20
-100.72838766469999
 30
0.0
 40
9.8954164504999991
  1
25
  0
LINE
  5
78
  8
0
 62
     0
 10
199.46363186229999
 20
-147.64616167439999
 30
0.0
 11
199.46363186229999
 21
-102.4746376265
 31
0.0
  0
LINE
  5
79
  8
0
 62
     0
 10
174.46363186229999
 20
-138.64616167439999
 30
0.0
 11
174.46363186229999
 21
-102.4746376265
 31
0.0
  0
LINE
  5
7A
  8
0
 62
     0
 10
199.46363186229999
 20
-103.4746376265
 30
0.0
 11
198.6052982747
 21
-103.4746376265
 31
0.0
  0
LINE
  5
7B
  8
0
 62
     0
 10
199.46363186229999
 20
-103.4746376265
 30
0.0
 11
175.32196544999999
 21
-103.4746376265
 31
0.0
  0
LINE
  5
7C
  8
0
 62
     0
 10
174.46363186229999
 20
-103.4746376265
 30
0.0
 11
198.6052982747
 21
-103.4746376265
 31
0.0
  0
LINE
  5
7D
  8
0
 62
     0
 10
174.46363186229999
 20
-103.4746376265
 30
0.0
 11
175.32196544999999
 21
-103.4746376265
 31
0.0
  0
LINE
  5
7E
  8
0
 62
     0
 10
174.46363186229999
 20
-103.4746376265
 30
0.0
 11
169.46363186229999
 21
-103.4746376265
 31
0.0
  0
SOLID
  5
7F
  8
0
 62
     0
 10
174.46363186229999
 20
-103.4746376265
 30
0.0
 11
165.46363186229999
 21
-105.7246376265
 31
0.0
 12
165.46363186229999
 22
-101.2246376265
 32
0.0
 13
167.71363186229999
 23
-103.4746376265
 33
0.0
  0
LINE
  5
80
  8
0
 62
     0
 10
199.46363186229999
 20
-103.4746376265
 30
0.0
 11
204.46363186229999
 21
-103.4746376265
 31
0.0
  0
SOLID
  5
81
  8
0
 62
     0
 10
199.46363186229999
 20
-103.4746376265
 30
0.0
 11
208.46363186229999
 21
-101.2246376265
 31
0.0
 12
208.46363186229999
 22
-105.7246376265
 32
0.0
 13
206.21363186229999
 23
-103.4746376265
 33
0.0
  0
ENDBLK
  5
82
  8
0
  0
BLOCK
  8
0
  2
*D4
 70
     1
 10
0.0
 20
0.0
 30
0.0
  3
*D4
  1

  0
TEXT
  5
86
  8
0
 62
     0
 10
208.6427986562
 20
-100.72838766469999
 30
0.0
 40
9.8954164504999991
  1
30
  0
LINE
  5
87
  8
0
 62
     0
 10
229.46363186229999
 20
-138.64616167439999
 30
0.0
 11
229.46363186229999
 21
-102.4746376265
 31
0.0
  0
LINE
  5
88
  8
0
 62
     0
 10
199.46363186229999
 20
-147.64616167439999
 30
0.0
 11
199.46363186229999
 21
-102.4746376265
 31
0.0
  0
LINE
  5
89
  8
0
 62
     0
 10
229.46363186229999
 20
-103.4746376265
 30
0.0
 11
226.1052982747
 21
-103.4746376265
 31
0.0
  0
LINE
  5
8A
  8
0
 62
     0
 10
229.46363186229999
 20
-103.4746376265
 30
0.0
 11
202.82196544999999
 21
-103.4746376265
 31
0.0
  0
LINE
  5
8B
  8
0
 62
     0
 10
199.46363186229999
 20
-103.4746376265
 30
0.0
 11
226.1052982747
 21
-103.4746376265
 31
0.0
  0
LINE
  5
8C
  8
0
 62
     0
 10
199.46363186229999
 20
-103.4746376265
 30
0.0
 11
202.82196544999999
 21
-103.4746376265
 31
0.0
  0
LINE
  5
8D
  8
0
 62
     0
 10
199.46363186229999
 20
-103.4746376265
 30
0.0
 11
194.46363186229999
 21
-103.4746376265
 31
0.0
  0
SOLID
  5
8E
  8
0
 62
     0
 10
199.46363186229999
 20
-103.4746376265
 30
0.0
 11
190.46363186229999
 21
-105.7246376265
 31
0.0
 12
190.46363186229999
 22
-101.2246376265
 32
0.0
 13
192.71363186229999
 23
-103.4746376265
 33
0.0
  0
LINE
  5
8F
  8
0
 62
     0
 10
229.46363186229999
 20
-103.4746376265
 30
0.0
 11
234.46363186229999
 21
-103.4746376265
 31
0.0
  0
SOLID
  5
90
  8
0
 62
     0
 10
229.46363186229999
 20
-103.4746376265
 30
0.0
 11
238.46363186229999
 21
-101.2246376265
 31
0.0
 12
238.46363186229999
 22
-105.7246376265
 32
0.0
 13
236.21363186229999
 23
-103.4746376265
 33
0.0
  0
ENDBLK
  5
91
  8
0
  0
BLOCK
  8
0
  2
*D5
 70
     1
 10
0.0
 20
0.0
 30
0.0
  3
*D5
  1

  0
TEXT
  5
95
  8
0
 62
     0
 10
196.1427986562
 20
-80.050181030100006
 30
0.0
 40
9.8954164504999991
  1
55
  0
LINE
  5
96
  8
0
 62
     0
 10
229.46363186229999
 20
-139.4461616744
 30
0.0
 11
229.46363186229999
 21
-81.796430991999983
 31
0.0
  0
LINE
  5
97
  8
0
 62
     0
 10
174.46363186229999
 20
-139.4461616744
 30
0.0
 11
174.46363186229999
 21
-81.796430991999983
 31
0.0
  0
LINE
  5
98
  8
0
 62
     0
 10
229.46363186229999
 20
-82.796430991999983
 30
0.0
 11
213.6052982747
 21
-82.796430991999983
 31
0.0
  0
LINE
  5
99
  8
0
 62
     0
 10
229.46363186229999
 20
-82.796430991999983
 30
0.0
 11
190.32196544999999
 21
-82.796430991999983
 31
0.0
  0
LINE
  5
9A
  8
0
 62
     0
 10
174.46363186229999
 20
-82.796430991999983
 30
0.0
 11
213.6052982747
 21
-82.796430991999983
 31
0.0
  0
LINE
  5
9B
  8
0
 62
     0
 10
174.46363186229999
 20
-82.796430991999983
 30
0.0
 11
190.32196544999999
 21
-82.796430991999983
 31
0.0
  0
LINE
  5
9C
  8
0
 62
     0
 10
174.46363186229999
 20
-82.796430991999983
 30
0.0
 11
179.46363186229999
 21
-82.796430991999983
 31
0.0
  0
SOLID
  5
9D
  8
0
 62
     0
 10
174.46363186229999
 20
-82.796430991999983
 30
0.0
 11
183.46363186229999
 21
-80.546430991999983
 31
0.0
 12
183.46363186229999
 22
-85.046430991999998
 32
0.0
 13
181.21363186229999
 23
-82.796430991999983
 33
0.0
  0
LINE
  5
9E
  8
0
 62
     0
 10
229.46363186229999
 20
-82.796430991999983
 30
0.0
 11
224.46363186229999
 21
-82.796430991999983
 31
0.0
  0
SOLID
  5
9F
  8
0
 62
     0
 10
229.46363186229999
 20
-82.796430991999983
 30
0.0
 11
220.46363186229999
 21
-85.046430991999998
 31
0.0
 12
220.46363186229999
 22
-80.546430991999983
 32
0.0
 13
222.71363186229999
 23
-82.796430991999983
 33
0.0
  0
ENDBLK
  5
A0
  8
0
  0
BLOCK
  8
0
  2
CLUMP1
 70
     0
 10
0.0
 20
0.0
 30
0.0
  3
CLUMP1
  1

  0
LINE
  5
A9
  8
┌▓È_1
 62
     5
 10
181.16363186230001
 20
-148.84616167440001
 30
0.0
 11
181.16363186230001
 21
-148.0461616744
 31
0.0
  0
LINE
  5
AA
  8
┌▓È_1
 62
     5
 10
175.2636318623
 20
-141.4461616744
 30
0.0
 11
175.2636318623
 21
-148.84616167440001
 31
0.0
  0
LINE
  5
AB
  8
┌▓È_1
 62
     5
 10
180.46363186229999
 20
-141.4461616744
 30
0.0
 11
175.2636318623
 21
-141.4461616744
 31
0.0
  0
LINE
  5
AC
  8
┌▓È_1
 62
     5
 10
180.46363186229999
 20
-141.4461616744
 30
0.0
 11
180.46363186229999
 21
-140.64616167439999
 31
0.0
  0
LINE
  5
AD
  8
┌▓È_1
 62
     5
 10
180.46363186229999
 20
-140.64616167439999
 30
0.0
 11
175.2636318623
 21
-140.64616167439999
 31
0.0
  0
ARC
  5
AE
  8
┌▓È_1
 62
     5
 10
175.2636318623
 20
-141.4461616744
 30
0.0
 40
0.8
 50
90.0
 51
180.0
  0
LINE
  5
AF
  8
┌▓È_1
 62
     5
 10
174.46363186229999
 20
-141.4461616744
 30
0.0
 11
174.46363186229999
 21
-148.84616167440001
 31
0.0
  0
ARC
  5
B0
  8
┌▓È_1
 62
     5
 10
175.2636318623
 20
-148.84616167440001
 30
0.0
 40
0.8
 50
180.0
 51
270.0
  0
LINE
  5
B1
  8
┌▓È_1
 62
     5
 10
223.46363186229999
 20
-140.64616167439999
 30
0.0
 11
223.46363186229999
 21
-141.4461616744
 31
0.0
  0
LINE
  5
B2
  8
┌▓È_1
 62
     5
 10
228.66363186230001
 20
-141.4461616744
 30
0.0
 11
223.46363186229999
 21
-141.4461616744
 31
0.0
  0
LINE
  5
B3
  8
┌▓È_1
 62
     5
 10
228.66363186230001
 20
-153.84616167440001
 30
0.0
 11
228.66363186230001
 21
-141.4461616744
 31
0.0
  0
LINE
  5
B4
  8
┌▓È_1
 62
     5
 10
200.2636318623
 20
-153.84616167440001
 30
0.0
 11
228.66363186230001
 21
-153.84616167440001
 31
0.0
  0
LINE
  5
B5
  8
┌▓È_1
 62
     5
 10
175.2636318623
 20
-149.64616167439999
 30
0.0
 11
199.46363186229999
 21
-149.64616167439999
 31
0.0
  0
LINE
  5
B6
  8
┌▓È_1
 62
     5
 10
175.2636318623
 20
-148.84616167440001
 30
0.0
 11
199.46363186229999
 21
-148.84616167440001
 31
0.0
  0
LINE
  5
B7
  8
┌▓È_1
 62
     5
 10
200.2636318623
 20
-149.64616167439999
 30
0.0
 11
200.2636318623
 21
-153.84616167440001
 31
0.0
  0
ARC
  5
B8
  8
┌▓È_1
 62
     5
 10
199.46363186229999
 20
-149.64616167439999
 30
0.0
 40
0.8
 50
0.0
 51
90.0
  0
LINE
  5
B9
  8
┌▓È_1
 62
     5
 10
199.46363186229999
 20
-149.64616167439999
 30
0.0
 11
199.46363186229999
 21
-153.84616167440001
 31
0.0
  0
ARC
  5
BA
  8
┌▓È_1
 62
     5
 10
200.2636318623
 20
-153.84616167440001
 30
0.0
 40
0.8
 50
180.0
 51
270.0
  0
LINE
  5
BB
  8
┌▓È_1
 62
     5
 10
200.2636318623
 20
-154.64616167439999
 30
0.0
 11
228.66363186230001
 21
-154.64616167439999
 31
0.0
  0
ARC
  5
BC
  8
┌▓È_1
 62
     5
 10
228.66363186230001
 20
-153.84616167440001
 30
0.0
 40
0.8
 50
270.0
 51
0.0
  0
LINE
  5
BD
  8
┌▓È_1
 62
     5
 10
228.66363186230001
 20
-140.64616167439999
 30
0.0
 11
223.46363186229999
 21
-140.64616167439999
 31
0.0
  0
LINE
  5
BE
  8
┌▓È_1
 62
     5
 10
229.46363186229999
 20
-153.84616167440001
 30
0.0
 11
229.46363186229999
 21
-141.4461616744
 31
0.0
  0
ARC
  5
BF
  8
┌▓È_1
 62
     5
 10
228.66363186230001
 20
-141.4461616744
 30
0.0
 40
0.8
 50
0.0
 51
90.0
  0
LINE
  5
C0
  8
┌▓È_1
 62
     5
 10
181.16363186230001
 20
-148.0461616744
 30
0.0
 11
228.66363186230001
 21
-148.0461616744
 31
0.0
  0
LINE
  5
C1
  8
┌▓È_1
 62
     5
 10
199.46363186229999
 20
-148.84616167440001
 30
0.0
 11
228.66363186230001
 21
-148.84616167440001
 31
0.0
  0
ENDBLK
  5
C2
  8
0
  0
BLOCK
  8
0
  2
*D7
 70
     1
 10
0.0
 20
0.0
 30
0.0
  3
*D7
  1

  0
TEXT
  5
E0
  8
0
 62
     0
 10
0.2067830897
 20
-148.05610692330001
 30
0.0
 40
9.8954164504999991
  1
9
 50
90.0
  0
LINE
  5
E1
  8
0
 62
     0
 10
-28.652944960599999
 20
-149.6456903202
 30
0.0
 11
3.953033051499999
 21
-149.6456903202
 31
0.0
  0
LINE
  5
E2
  8
0
 62
     0
 10
-19.652944960599999
 20
-140.6456903202
 30
0.0
 11
3.953033051499999
 21
-140.6456903202
 31
0.0
  0
LINE
  5
E3
  8
0
 62
     0
 10
2.953033051499999
 20
-149.6456903202
 30
0.0
 11
2.953033051499999
 21
-149.6456903202
 31
0.0
  0
LINE
  5
E4
  8
0
 62
     0
 10
2.953033051499999
 20
-149.6456903202
 30
0.0
 11
2.953033051499999
 21
-140.6456903202
 31
0.0
  0
LINE
  5
E5
  8
0
 62
     0
 10
2.953033051499999
 20
-140.6456903202
 30
0.0
 11
2.953033051499999
 21
-149.6456903202
 31
0.0
  0
LINE
  5
E6
  8
0
 62
     0
 10
2.953033051499999
 20
-140.6456903202
 30
0.0
 11
2.953033051499999
 21
-140.6456903202
 31
0.0
  0
LINE
  5
E7
  8
0
 62
     0
 10
2.953033051499999
 20
-140.6456903202
 30
0.0
 11
2.953033051499999
 21
-135.6456903202
 31
0.0
  0
SOLID
  5
E8
  8
0
 62
     0
 10
2.953033051499999
 20
-140.6456903202
 30
0.0
 11
0.7030330515000001
 21
-131.6456903202
 31
0.0
 12
5.2030330514999994
 22
-131.6456903202
 32
0.0
 13
2.953033051499999
 23
-133.8956903202
 33
0.0
  0
LINE
  5
E9
  8
0
 62
     0
 10
2.953033051499999
 20
-149.6456903202
 30
0.0
 11
2.953033051499999
 21
-154.6456903202
 31
0.0
  0
SOLID
  5
EA
  8
0
 62
     0
 10
2.953033051499999
 20
-149.6456903202
 30
0.0
 11
5.2030330514999994
 21
-158.6456903202
 31
0.0
 12
0.7030330515000001
 22
-158.6456903202
 32
0.0
 13
2.953033051499999
 23
-156.3956903202
 33
0.0
  0
ENDBLK
  5
EB
  8
0
  0
BLOCK
  8
0
  2
CLUMP2
 70
     0
 10
0.0
 20
0.0
 30
0.0
  3
CLUMP2
  1

  0
LINE
  5
F0
  8
┌▓È_1
 62
     5
 10
87.640677554199996
 20
-331.24569032020003
 30
0.0
 11
112.3406775542
 21
-331.24569032020003
 31
0.0
  0
LINE
  5
F1
  8
┌▓È_1
 62
     5
 10
87.640677554199996
 20
-331.24569032020003
 30
0.0
 11
87.640677554199996
 21
-330.44569032020001
 31
0.0
  0
ARC
  5
F2
  8
┌▓È_1
 62
     5
 10
98.140677554199996
 20
-329.6456903202
 30
0.0
 40
0.8
 50
270.0
 51
0.0
  0
LINE
  5
F3
  8
┌▓È_1
 62
     5
 10
107.1406775542
 20
-337.84569032019999
 30
0.0
 11
112.3406775542
 21
-337.84569032019999
 31
0.0
  0
LINE
  5
F4
  8
┌▓È_1
 62
     5
 10
107.1406775542
 20
-338.6456903202
 30
0.0
 11
107.1406775542
 21
-337.84569032019999
 31
0.0
  0
LINE
  5
F5
  8
┌▓È_1
 62
     5
 10
89.140677554199996
 20
-337.84569032019999
 30
0.0
 11
89.140677554199996
 21
-338.6456903202
 31
0.0
  0
LINE
  5
F6
  8
┌▓È_1
 62
     5
 10
98.940677554200008
 20
-323.1456903202
 30
0.0
 11
112.3406775542
 21
-323.1456903202
 31
0.0
  0
LINE
  5
F7
  8
┌▓È_1
 62
     5
 10
98.140677554199996
 20
-329.6456903202
 30
0.0
 11
98.140677554199996
 21
-323.94569032020001
 31
0.0
  0
ARC
  5
F8
  8
┌▓È_1
 62
     5
 10
98.940677554200008
 20
-323.94569032020001
 30
0.0
 40
0.8
 50
90.0
 51
180.0
  0
LINE
  5
F9
  8
┌▓È_1
 62
     5
 10
98.940677554200008
 20
-323.94569032020001
 30
0.0
 11
98.940677554200008
 21
-329.6456903202
 31
0.0
  0
LINE
  5
FA
  8
┌▓È_1
 62
     5
 10
112.3406775542
 20
-337.84569032019999
 30
0.0
 11
112.3406775542
 21
-323.94569032020001
 31
0.0
  0
LINE
  5
FB
  8
┌▓È_1
 62
     5
 10
112.3406775542
 20
-338.6456903202
 30
0.0
 11
107.1406775542
 21
-338.6456903202
 31
0.0
  0
ARC
  5
FC
  8
┌▓È_1
 62
     5
 10
112.3406775542
 20
-337.84569032019999
 30
0.0
 40
0.8
 50
270.0
 51
0.0
  0
LINE
  5
FD
  8
┌▓È_1
 62
     5
 10
113.1406775542
 20
-323.94569032020001
 30
0.0
 11
113.1406775542
 21
-337.84569032019999
 31
0.0
  0
ARC
  5
FE
  8
┌▓È_1
 62
     5
 10
112.3406775542
 20
-323.94569032020001
 30
0.0
 40
0.8
 50
0.0
 51
90.0
  0
LINE
  5
FF
  8
┌▓È_1
 62
     5
 10
89.140677554199996
 20
-337.84569032019999
 30
0.0
 11
89.140677554199996
 21
-331.24569032020003
 31
0.0
  0
LINE
  5
100
  8
┌▓È_1
 62
     5
 10
98.140677554199996
 20
-330.44569032020001
 30
0.0
 11
112.3406775542
 21
-330.44569032020001
 31
0.0
  0
LINE
  5
101
  8
┌▓È_1
 62
     5
 10
112.3406775542
 20
-323.94569032020001
 30
0.0
 11
98.940677554200008
 21
-323.94569032020001
 31
0.0
  0
LINE
  5
102
  8
┌▓È_1
 62
     5
 10
83.940677554200008
 20
-330.44569032020001
 30
0.0
 11
83.940677554200008
 21
-337.84569032019999
 31
0.0
  0
ARC
  5
103
  8
┌▓È_1
 62
     5
 10
83.940677554200008
 20
-337.84569032019999
 30
0.0
 40
0.8
 50
180.0
 51
270.0
  0
LINE
  5
104
  8
┌▓È_1
 62
     5
 10
83.140677554199996
 20
-337.84569032019999
 30
0.0
 11
83.140677554199996
 21
-330.44569032020001
 31
0.0
  0
ARC
  5
105
  8
┌▓È_1
 62
     5
 10
83.940677554200008
 20
-330.44569032020001
 30
0.0
 40
0.8
 50
90.0
 51
180.0
  0
LINE
  5
106
  8
┌▓È_1
 62
     5
 10
83.940677554200008
 20
-329.6456903202
 30
0.0
 11
98.140677554199996
 21
-329.6456903202
 31
0.0
  0
LINE
  5
107
  8
┌▓È_1
 62
     5
 10
83.940677554200008
 20
-337.84569032019999
 30
0.0
 11
89.140677554199996
 21
-337.84569032019999
 31
0.0
  0
LINE
  5
108
  8
┌▓È_1
 62
     5
 10
89.140677554199996
 20
-338.6456903202
 30
0.0
 11
83.940677554200008
 21
-338.6456903202
 31
0.0
  0
LINE
  5
109
  8
┌▓È_1
 62
     5
 10
98.140677554199996
 20
-330.44569032020001
 30
0.0
 11
83.940677554200008
 21
-330.44569032020001
 31
0.0
  0
ENDBLK
  5
10A
  8
0
  0
BLOCK
  8
0
  2
*D9
 70
     1
 10
0.0
 20
0.0
 30
0.0
  3
*D9
  1

  0
TEXT
  5
119
  8
0
 62
     0
 10
99.751848114300003
 20
-100.89903676340001
 30
0.0
 40
9.8954164504999991
  1
15
  0
LINE
  5
11A
  8
0
 62
     0
 10
113.1406775542
 20
-139.44569032019999
 30
0.0
 11
113.1406775542
 21
-102.64528672519999
 31
0.0
  0
LINE
  5
11B
  8
0
 62
     0
 10
98.140677554199996
 20
-147.6456903202
 30
0.0
 11
98.140677554199996
 21
-102.64528672519999
 31
0.0
  0
LINE
  5
11C
  8
0
 62
     0
 10
113.1406775542
 20
-103.64528672519999
 30
0.0
 11
113.1406775542
 21
-103.64528672519999
 31
0.0
  0
LINE
  5
11D
  8
0
 62
     0
 10
113.1406775542
 20
-103.64528672519999
 30
0.0
 11
98.140677554199996
 21
-103.64528672519999
 31
0.0
  0
LINE
  5
11E
  8
0
 62
     0
 10
98.140677554199996
 20
-103.64528672519999
 30
0.0
 11
113.1406775542
 21
-103.64528672519999
 31
0.0
  0
LINE
  5
11F
  8
0
 62
     0
 10
98.140677554199996
 20
-103.64528672519999
 30
0.0
 11
98.140677554199996
 21
-103.64528672519999
 31
0.0
  0
LINE
  5
120
  8
0
 62
     0
 10
98.140677554199996
 20
-103.64528672519999
 30
0.0
 11
93.140677554199996
 21
-103.64528672519999
 31
0.0
  0
SOLID
  5
121
  8
0
 62
     0
 10
98.140677554199996
 20
-103.64528672519999
 30
0.0
 11
89.140677554199996
 21
-105.89528672519999
 31
0.0
 12
89.140677554199996
 22
-101.39528672519999
 32
0.0
 13
91.390677554199996
 23
-103.64528672519999
 33
0.0
  0
LINE
  5
122
  8
0
 62
     0
 10
113.1406775542
 20
-103.64528672519999
 30
0.0
 11
118.1406775542
 21
-103.64528672519999
 31
0.0
  0
SOLID
  5
123
  8
0
 62
     0
 10
113.1406775542
 20
-103.64528672519999
 30
0.0
 11
122.1406775542
 21
-101.39528672519999
 31
0.0
 12
122.1406775542
 22
-105.89528672519999
 32
0.0
 13
119.8906775542
 23
-103.64528672519999
 33
0.0
  0
ENDBLK
  5
124
  8
0
  0
BLOCK
  8
0
  2
*D10
 70
     1
 10
0.0
 20
0.0
 30
0.0
  3
*D10
  1

  0
TEXT
  5
128
  8
0
 62
     0
 10
92.31984434799999
 20
-79.278873799500005
 30
0.0
 40
9.8954164504999991
  1
30
  0
LINE
  5
129
  8
0
 62
     0
 10
113.1406775542
 20
-139.44569032019999
 30
0.0
 11
113.1406775542
 21
-81.02512376140001
 31
0.0
  0
LINE
  5
12A
  8
0
 62
     0
 10
83.140677554199996
 20
-139.44569032019999
 30
0.0
 11
83.140677554199996
 21
-81.02512376140001
 31
0.0
  0
LINE
  5
12B
  8
0
 62
     0
 10
113.1406775542
 20
-82.02512376140001
 30
0.0
 11
109.7823439666
 21
-82.02512376140001
 31
0.0
  0
LINE
  5
12C
  8
0
 62
     0
 10
113.1406775542
 20
-82.02512376140001
 30
0.0
 11
86.499011141799997
 21
-82.02512376140001
 31
0.0
  0
LINE
  5
12D
  8
0
 62
     0
 10
83.140677554199996
 20
-82.02512376140001
 30
0.0
 11
109.7823439666
 21
-82.02512376140001
 31
0.0
  0
LINE
  5
12E
  8
0
 62
     0
 10
83.140677554199996
 20
-82.02512376140001
 30
0.0
 11
86.499011141799997
 21
-82.02512376140001
 31
0.0
  0
LINE
  5
12F
  8
0
 62
     0
 10
83.140677554199996
 20
-82.02512376140001
 30
0.0
 11
78.140677554199996
 21
-82.02512376140001
 31
0.0
  0
SOLID
  5
130
  8
0
 62
     0
 10
83.140677554199996
 20
-82.02512376140001
 30
0.0
 11
74.140677554199996
 21
-84.27512376140001
 31
0.0
 12
74.140677554199996
 22
-79.77512376140001
 32
0.0
 13
76.390677554199996
 23
-82.02512376140001
 33
0.0
  0
LINE
  5
131
  8
0
 62
     0
 10
113.1406775542
 20
-82.02512376140001
 30
0.0
 11
118.1406775542
 21
-82.02512376140001
 31
0.0
  0
SOLID
  5
132
  8
0
 62
     0
 10
113.1406775542
 20
-82.02512376140001
 30
0.0
 11
122.1406775542
 21
-79.77512376140001
 31
0.0
 12
122.1406775542
 22
-84.27512376140001
 32
0.0
 13
119.8906775542
 23
-82.02512376140001
 33
0.0
  0
ENDBLK
  5
133
  8
0
  0
BLOCK
  8
0
  2
*D11
 70
     1
 10
0.0
 20
0.0
 30
0.0
  3
*D11
  1

  0
TEXT
  5
137
  8
0
 62
     0
 10
84.579367769499996
 20
-100.89903676340001
 30
0.0
 40
9.8954164504999991
  1
15
  0
LINE
  5
138
  8
0
 62
     0
 10
98.140677554199996
 20
-147.6456903202
 30
0.0
 11
98.140677554199996
 21
-102.64528672519999
 31
0.0
  0
LINE
  5
139
  8
0
 62
     0
 10
83.140677554199996
 20
-139.44569032019999
 30
0.0
 11
83.140677554199996
 21
-102.64528672519999
 31
0.0
  0
LINE
  5
13A
  8
0
 62
     0
 10
98.140677554199996
 20
-103.64528672519999
 30
0.0
 11
98.140677554199996
 21
-103.64528672519999
 31
0.0
  0
LINE
  5
13B
  8
0
 62
     0
 10
98.140677554199996
 20
-103.64528672519999
 30
0.0
 11
83.140677554199996
 21
-103.64528672519999
 31
0.0
  0
LINE
  5
13C
  8
0
 62
     0
 10
83.140677554199996
 20
-103.64528672519999
 30
0.0
 11
98.140677554199996
 21
-103.64528672519999
 31
0.0
  0
LINE
  5
13D
  8
0
 62
     0
 10
83.140677554199996
 20
-103.64528672519999
 30
0.0
 11
83.140677554199996
 21
-103.64528672519999
 31
0.0
  0
LINE
  5
13E
  8
0
 62
     0
 10
83.140677554199996
 20
-103.64528672519999
 30
0.0
 11
78.140677554199996
 21
-103.64528672519999
 31
0.0
  0
SOLID
  5
13F
  8
0
 62
     0
 10
83.140677554199996
 20
-103.64528672519999
 30
0.0
 11
74.140677554199996
 21
-105.89528672519999
 31
0.0
 12
74.140677554199996
 22
-101.39528672519999
 32
0.0
 13
76.390677554199996
 23
-103.64528672519999
 33
0.0
  0
LINE
  5
140
  8
0
 62
     0
 10
98.140677554199996
 20
-103.64528672519999
 30
0.0
 11
103.1406775542
 21
-103.64528672519999
 31
0.0
  0
SOLID
  5
141
  8
0
 62
     0
 10
98.140677554199996
 20
-103.64528672519999
 30
0.0
 11
107.1406775542
 21
-101.39528672519999
 31
0.0
 12
107.1406775542
 22
-105.89528672519999
 32
0.0
 13
104.8906775542
 23
-103.64528672519999
 33
0.0
  0
ENDBLK
  5
142
  8
0
  0
BLOCK
  8
0
  2
*D12
 70
     1
 10
0.0
 20
0.0
 30
0.0
  3
*D12
  1

  0
TEXT
  5
146
  8
0
 62
     0
 10
133.37986994459999
 20
-132.8821647547
 30
0.0
 40
9.8954164504999991
  1
15.5
 50
90.0
  0
LINE
  5
147
  8
0
 62
     0
 10
114.3406775542
 20
-156.1456903202
 30
0.0
 11
137.12611990650001
 21
-156.1456903202
 31
0.0
  0
LINE
  5
148
  8
0
 62
     0
 10
114.3406775542
 20
-140.6456903202
 30
0.0
 11
137.12611990650001
 21
-140.6456903202
 31
0.0
  0
LINE
  5
149
  8
0
 62
     0
 10
136.12611990650001
 20
-156.1456903202
 30
0.0
 11
136.12611990650001
 21
-107.17348476079999
 31
0.0
  0
LINE
  5
14A
  8
0
 62
     0
 10
136.12611990650001
 20
-156.1456903202
 30
0.0
 11
136.12611990650001
 21
-138.70299796090001
 31
0.0
  0
LINE
  5
14B
  8
0
 62
     0
 10
136.12611990650001
 20
-140.6456903202
 30
0.0
 11
136.12611990650001
 21
-107.17348476079999
 31
0.0
  0
LINE
  5
14C
  8
0
 62
     0
 10
136.12611990650001
 20
-140.6456903202
 30
0.0
 11
136.12611990650001
 21
-138.70299796090001
 31
0.0
  0
LINE
  5
14D
  8
0
 62
     0
 10
136.12611990650001
 20
-140.6456903202
 30
0.0
 11
136.12611990650001
 21
-135.6456903202
 31
0.0
  0
SOLID
  5
14E
  8
0
 62
     0
 10
136.12611990650001
 20
-140.6456903202
 30
0.0
 11
133.87611990650001
 21
-131.6456903202
 31
0.0
 12
138.37611990650001
 22
-131.6456903202
 32
0.0
 13
136.12611990650001
 23
-133.8956903202
 33
0.0
  0
LINE
  5
14F
  8
0
 62
     0
 10
136.12611990650001
 20
-156.1456903202
 30
0.0
 11
136.12611990650001
 21
-161.1456903202
 31
0.0
  0
SOLID
  5
150
  8
0
 62
     0
 10
136.12611990650001
 20
-156.1456903202
 30
0.0
 11
138.37611990650001
 21
-165.1456903202
 31
0.0
 12
133.87611990650001
 22
-165.1456903202
 32
0.0
 13
136.12611990650001
 23
-162.8956903202
 33
0.0
  0
ENDBLK
  5
151
  8
0
  0
BLOCK
  8
0
  2
CLUMP3
 70
     0
 10
0.0
 20
0.0
 30
0.0
  3
CLUMP3
  1

  0
LINE
  5
159
  8
┌▓È_1
 62
     5
 10
87.640677554199996
 20
-148.04569032020001
 30
0.0
 11
112.3406775542
 21
-148.04569032020001
 31
0.0
  0
LINE
  5
15A
  8
┌▓È_1
 62
     5
 10
87.640677554199996
 20
-148.04569032020001
 30
0.0
 11
87.640677554199996
 21
-148.84569032019999
 31
0.0
  0
LINE
  5
15B
  8
┌▓È_1
 62
     5
 10
112.3406775542
 20
-155.34569032019999
 30
0.0
 11
98.940677554200008
 21
-155.34569032019999
 31
0.0
  0
LINE
  5
15C
  8
┌▓È_1
 62
     5
 10
112.3406775542
 20
-141.44569032019999
 30
0.0
 11
112.3406775542
 21
-155.34569032019999
 31
0.0
  0
ARC
  5
15D
  8
┌▓È_1
 62
     5
 10
112.3406775542
 20
-141.44569032019999
 30
0.0
 40
0.8
 50
0.0
 51
90.0
  0
LINE
  5
15E
  8
┌▓È_1
 62
     5
 10
113.1406775542
 20
-155.34569032019999
 30
0.0
 11
113.1406775542
 21
-141.44569032019999
 31
0.0
  0
ARC
  5
15F
  8
┌▓È_1
 62
     5
 10
112.3406775542
 20
-155.34569032019999
 30
0.0
 40
0.8
 50
270.0
 51
0.0
  0
LINE
  5
160
  8
┌▓È_1
 62
     5
 10
98.940677554200008
 20
-156.1456903202
 30
0.0
 11
112.3406775542
 21
-156.1456903202
 31
0.0
  0
LINE
  5
161
  8
┌▓È_1
 62
     5
 10
98.140677554199996
 20
-149.6456903202
 30
0.0
 11
98.140677554199996
 21
-155.34569032019999
 31
0.0
  0
ARC
  5
162
  8
┌▓È_1
 62
     5
 10
98.940677554200008
 20
-155.34569032019999
 30
0.0
 40
0.8
 50
180.0
 51
270.0
  0
LINE
  5
163
  8
┌▓È_1
 62
     5
 10
98.940677554200008
 20
-155.34569032019999
 30
0.0
 11
98.940677554200008
 21
-149.6456903202
 31
0.0
  0
LINE
  5
164
  8
┌▓È_1
 62
     5
 10
107.1406775542
 20
-141.44569032019999
 30
0.0
 11
112.3406775542
 21
-141.44569032019999
 31
0.0
  0
LINE
  5
165
  8
┌▓È_1
 62
     5
 10
107.1406775542
 20
-140.6456903202
 30
0.0
 11
107.1406775542
 21
-141.44569032019999
 31
0.0
  0
LINE
  5
166
  8
┌▓È_1
 62
     5
 10
89.140677554199996
 20
-141.44569032019999
 30
0.0
 11
89.140677554199996
 21
-148.04569032020001
 31
0.0
  0
LINE
  5
167
  8
┌▓È_1
 62
     5
 10
98.140677554199996
 20
-148.84569032019999
 30
0.0
 11
112.3406775542
 21
-148.84569032019999
 31
0.0
  0
LINE
  5
168
  8
┌▓È_1
 62
     5
 10
89.140677554199996
 20
-141.44569032019999
 30
0.0
 11
89.140677554199996
 21
-140.6456903202
 31
0.0
  0
LINE
  5
169
  8
┌▓È_1
 62
     5
 10
112.3406775542
 20
-140.6456903202
 30
0.0
 11
107.1406775542
 21
-140.6456903202
 31
0.0
  0
ARC
  5
16A
  8
┌▓È_1
 62
     5
 10
98.140677554199996
 20
-149.6456903202
 30
0.0
 40
0.8
 50
0.0
 51
90.0
  0
ARC
  5
16B
  8
┌▓È_1
 62
     5
 10
83.940677554200008
 20
-148.84569032019999
 30
0.0
 40
0.8
 50
180.0
 51
270.0
  0
LINE
  5
16C
  8
┌▓È_1
 62
     5
 10
83.940677554200008
 20
-148.84569032019999
 30
0.0
 11
83.940677554200008
 21
-141.44569032019999
 31
0.0
  0
ARC
  5
16D
  8
┌▓È_1
 62
     5
 10
83.940677554200008
 20
-141.44569032019999
 30
0.0
 40
0.8
 50
90.0
 51
180.0
  0
LINE
  5
16E
  8
┌▓È_1
 62
     5
 10
83.140677554199996
 20
-141.44569032019999
 30
0.0
 11
83.140677554199996
 21
-148.84569032019999
 31
0.0
  0
LINE
  5
16F
  8
┌▓È_1
 62
     5
 10
83.940677554200008
 20
-141.44569032019999
 30
0.0
 11
89.140677554199996
 21
-141.44569032019999
 31
0.0
  0
LINE
  5
170
  8
┌▓È_1
 62
     5
 10
89.140677554199996
 20
-140.6456903202
 30
0.0
 11
83.940677554200008
 21
-140.6456903202
 31
0.0
  0
LINE
  5
171
  8
┌▓È_1
 62
     5
 10
98.140677554199996
 20
-148.84569032019999
 30
0.0
 11
83.940677554200008
 21
-148.84569032019999
 31
0.0
  0
LINE
  5
172
  8
┌▓È_1
 62
     5
 10
83.940677554200008
 20
-149.6456903202
 30
0.0
 11
98.140677554199996
 21
-149.6456903202
 31
0.0
  0
ENDBLK
  5
173
  8
0
  0
BLOCK
  8
0
  2
*D14
 70
     1
 10
0.0
 20
0.0
 30
0.0
  3
*D14
  1

  0
TEXT
  5
177
  8
0
 62
     0
 10
-29.063361563699999
 20
-104.64709813419999
 30
0.0
 40
9.8954164504999991
  1
9
  0
LINE
  5
178
  8
0
 62
     0
 10
-21.652944960599999
 20
-138.6456903202
 30
0.0
 11
-21.652944960599999
 21
-106.3933480961
 31
0.0
  0
LINE
  5
179
  8
0
 62
     0
 10
-30.652944960599999
 20
-147.6456903202
 30
0.0
 11
-30.652944960599999
 21
-106.3933480961
 31
0.0
  0
LINE
  5
17A
  8
0
 62
     0
 10
-21.652944960599999
 20
-107.3933480961
 30
0.0
 11
-21.652944960599999
 21
-107.3933480961
 31
0.0
  0
LINE
  5
17B
  8
0
 62
     0
 10
-21.652944960599999
 20
-107.3933480961
 30
0.0
 11
-30.652944960599999
 21
-107.3933480961
 31
0.0
  0
LINE
  5
17C
  8
0
 62
     0
 10
-30.652944960599999
 20
-107.3933480961
 30
0.0
 11
-21.652944960599999
 21
-107.3933480961
 31
0.0
  0
LINE
  5
17D
  8
0
 62
     0
 10
-30.652944960599999
 20
-107.3933480961
 30
0.0
 11
-30.652944960599999
 21
-107.3933480961
 31
0.0
  0
LINE
  5
17E
  8
0
 62
     0
 10
-30.652944960599999
 20
-107.3933480961
 30
0.0
 11
-35.652944960600003
 21
-107.3933480961
 31
0.0
  0
SOLID
  5
17F
  8
0
 62
     0
 10
-30.652944960599999
 20
-107.3933480961
 30
0.0
 11
-39.652944960600003
 21
-109.6433480961
 31
0.0
 12
-39.652944960600003
 22
-105.1433480961
 32
0.0
 13
-37.40294496060001
 23
-107.3933480961
 33
0.0
  0
LINE
  5
180
  8
0
 62
     0
 10
-21.652944960599999
 20
-107.3933480961
 30
0.0
 11
-16.652944960599999
 21
-107.3933480961
 31
0.0
  0
SOLID
  5
181
  8
0
 62
     0
 10
-21.652944960599999
 20
-107.3933480961
 30
0.0
 11
-12.652944960599999
 21
-105.1433480961
 31
0.0
 12
-12.652944960599999
 22
-109.6433480961
 32
0.0
 13
-14.902944960599999
 23
-107.3933480961
 33
0.0
  0
ENDBLK
  5
182
  8
0
  0
BLOCK
  8
0
  2
*D15
 70
     1
 10
0.0
 20
0.0
 30
0.0
  3
*D15
  1

  0
TEXT
  5
1B3
  8
0
 62
     0
 10
8.5990884637999994
 20
-424.60796522699991
 30
0.0
 40
9.8954164504999991
  1
6
 50
90.0
  0
LINE
  5
1B4
  8
0
 62
     0
 10
-20.4529449606
 20
-424.69754862389999
 30
0.0
 11
12.3453384257
 21
-424.69754862389999
 31
0.0
  0
LINE
  5
1B5
  8
0
 62
     0
 10
-19.652944960599999
 20
-418.69754862389988
 30
0.0
 11
12.3453384257
 21
-418.69754862389988
 31
0.0
  0
LINE
  5
1B6
  8
0
 62
     0
 10
11.3453384257
 20
-424.69754862389999
 30
0.0
 11
11.3453384257
 21
-424.69754862389999
 31
0.0
  0
LINE
  5
1B7
  8
0
 62
     0
 10
11.3453384257
 20
-424.69754862389999
 30
0.0
 11
11.3453384257
 21
-418.69754862389988
 31
0.0
  0
LINE
  5
1B8
  8
0
 62
     0
 10
11.3453384257
 20
-418.69754862389988
 30
0.0
 11
11.3453384257
 21
-424.69754862389999
 31
0.0
  0
LINE
  5
1B9
  8
0
 62
     0
 10
11.3453384257
 20
-418.69754862389988
 30
0.0
 11
11.3453384257
 21
-418.69754862389988
 31
0.0
  0
LINE
  5
1BA
  8
0
 62
     0
 10
11.3453384257
 20
-418.69754862389988
 30
0.0
 11
11.3453384257
 21
-413.69754862389988
 31
0.0
  0
SOLID
  5
1BB
  8
0
 62
     0
 10
11.3453384257
 20
-418.69754862389988
 30
0.0
 11
9.0953384257000014
 21
-409.69754862389988
 31
0.0
 12
13.5953384257
 22
-409.69754862389988
 32
0.0
 13
11.3453384257
 23
-411.94754862389988
 33
0.0
  0
LINE
  5
1BC
  8
0
 62
     0
 10
11.3453384257
 20
-424.69754862389999
 30
0.0
 11
11.3453384257
 21
-429.69754862389988
 31
0.0
  0
SOLID
  5
1BD
  8
0
 62
     0
 10
11.3453384257
 20
-424.69754862389999
 30
0.0
 11
13.5953384257
 21
-433.69754862389988
 31
0.0
 12
9.0953384257000014
 22
-433.69754862389988
 32
0.0
 13
11.3453384257
 23
-431.44754862389999
 33
0.0
  0
ENDBLK
  5
1BE
  8
0
  0
BLOCK
  8
0
  2
*D16
 70
     1
 10
0.0
 20
0.0
 30
0.0
  3
*D16
  1

  0
TEXT
  5
1C2
  8
0
 62
     0
 10
8.5990884637999994
 20
-400.60796522699991
 30
0.0
 40
9.8954164504999991
  1
6
 50
90.0
  0
LINE
  5
1C3
  8
0
 62
     0
 10
-19.652944960599999
 20
-400.69754862389988
 30
0.0
 11
12.3453384257
 21
-400.69754862389988
 31
0.0
  0
LINE
  5
1C4
  8
0
 62
     0
 10
-20.4529449606
 20
-394.69754862389999
 30
0.0
 11
12.3453384257
 21
-394.69754862389999
 31
0.0
  0
LINE
  5
1C5
  8
0
 62
     0
 10
11.3453384257
 20
-400.69754862389988
 30
0.0
 11
11.3453384257
 21
-400.69754862389988
 31
0.0
  0
LINE
  5
1C6
  8
0
 62
     0
 10
11.3453384257
 20
-400.69754862389988
 30
0.0
 11
11.3453384257
 21
-394.69754862389999
 31
0.0
  0
LINE
  5
1C7
  8
0
 62
     0
 10
11.3453384257
 20
-394.69754862389999
 30
0.0
 11
11.3453384257
 21
-400.69754862389988
 31
0.0
  0
LINE
  5
1C8
  8
0
 62
     0
 10
11.3453384257
 20
-394.69754862389999
 30
0.0
 11
11.3453384257
 21
-394.69754862389999
 31
0.0
  0
LINE
  5
1C9
  8
0
 62
     0
 10
11.3453384257
 20
-394.69754862389999
 30
0.0
 11
11.3453384257
 21
-389.69754862389999
 31
0.0
  0
SOLID
  5
1CA
  8
0
 62
     0
 10
11.3453384257
 20
-394.69754862389999
 30
0.0
 11
9.0953384257000014
 21
-385.69754862389999
 31
0.0
 12
13.5953384257
 22
-385.69754862389999
 32
0.0
 13
11.3453384257
 23
-387.94754862389999
 33
0.0
  0
LINE
  5
1CB
  8
0
 62
     0
 10
11.3453384257
 20
-400.69754862389988
 30
0.0
 11
11.3453384257
 21
-405.69754862389988
 31
0.0
  0
SOLID
  5
1CC
  8
0
 62
     0
 10
11.3453384257
 20
-400.69754862389988
 30
0.0
 11
13.5953384257
 21
-409.69754862389988
 31
0.0
 12
9.0953384257000014
 22
-409.69754862389988
 32
0.0
 13
11.3453384257
 23
-407.44754862389988
 33
0.0
  0
ENDBLK
  5
1CD
  8
0
  0
BLOCK
  8
0
  2
*D17
 70
     1
 10
0.0
 20
0.0
 30
0.0
  3
*D17
  1

  0
TEXT
  5
1D1
  8
0
 62
     0
 10
0.2067830897
 20
-337.05610692330009
 30
0.0
 40
9.8954164504999991
  1
9
 50
90.0
  0
LINE
  5
1D2
  8
0
 62
     0
 10
-19.652944960599999
 20
-338.6456903202
 30
0.0
 11
3.953033051499999
 21
-338.6456903202
 31
0.0
  0
LINE
  5
1D3
  8
0
 62
     0
 10
-28.652944960599999
 20
-329.6456903202
 30
0.0
 11
3.953033051499999
 21
-329.6456903202
 31
0.0
  0
LINE
  5
1D4
  8
0
 62
     0
 10
2.953033051499999
 20
-338.6456903202
 30
0.0
 11
2.953033051499999
 21
-338.6456903202
 31
0.0
  0
LINE
  5
1D5
  8
0
 62
     0
 10
2.953033051499999
 20
-338.6456903202
 30
0.0
 11
2.953033051499999
 21
-329.6456903202
 31
0.0
  0
LINE
  5
1D6
  8
0
 62
     0
 10
2.953033051499999
 20
-329.6456903202
 30
0.0
 11
2.953033051499999
 21
-338.6456903202
 31
0.0
  0
LINE
  5
1D7
  8
0
 62
     0
 10
2.953033051499999
 20
-329.6456903202
 30
0.0
 11
2.953033051499999
 21
-329.6456903202
 31
0.0
  0
LINE
  5
1D8
  8
0
 62
     0
 10
2.953033051499999
 20
-329.6456903202
 30
0.0
 11
2.953033051499999
 21
-324.6456903202
 31
0.0
  0
SOLID
  5
1D9
  8
0
 62
     0
 10
2.953033051499999
 20
-329.6456903202
 30
0.0
 11
0.7030330515000001
 21
-320.6456903202
 31
0.0
 12
5.2030330514999994
 22
-320.6456903202
 32
0.0
 13
2.953033051499999
 23
-322.8956903202
 33
0.0
  0
LINE
  5
1DA
  8
0
 62
     0
 10
2.953033051499999
 20
-338.6456903202
 30
0.0
 11
2.953033051499999
 21
-343.6456903202
 31
0.0
  0
SOLID
  5
1DB
  8
0
 62
     0
 10
2.953033051499999
 20
-338.6456903202
 30
0.0
 11
5.2030330514999994
 21
-347.6456903202
 31
0.0
 12
0.7030330515000001
 22
-347.6456903202
 32
0.0
 13
2.953033051499999
 23
-345.3956903202
 33
0.0
  0
ENDBLK
  5
1DC
  8
0
  0
BLOCK
  8
0
  2
*D18
 70
     1
 10
0.0
 20
0.0
 30
0.0
  3
*D18
  1

  0
TEXT
  5
1E0
  8
0
 62
     0
 10
133.37986994459999
 20
-366.58060339910003
 30
0.0
 40
9.8954164504999991
  1
15.5
 50
90.0
  0
LINE
  5
1E1
  8
0
 62
     0
 10
114.3406775542
 20
-338.6456903202
 30
0.0
 11
137.12611990650001
 21
-338.6456903202
 31
0.0
  0
LINE
  5
1E2
  8
0
 62
     0
 10
114.3406775542
 20
-323.1456903202
 30
0.0
 11
137.12611990650001
 21
-323.1456903202
 31
0.0
  0
LINE
  5
1E3
  8
0
 62
     0
 10
136.12611990650001
 20
-338.6456903202
 30
0.0
 11
136.12611990650001
 21
-340.87192340519999
 31
0.0
  0
LINE
  5
1E4
  8
0
 62
     0
 10
136.12611990650001
 20
-338.6456903202
 30
0.0
 11
136.12611990650001
 21
-372.40143660529998
 31
0.0
  0
LINE
  5
1E5
  8
0
 62
     0
 10
136.12611990650001
 20
-323.1456903202
 30
0.0
 11
136.12611990650001
 21
-340.87192340519999
 31
0.0
  0
LINE
  5
1E6
  8
0
 62
     0
 10
136.12611990650001
 20
-323.1456903202
 30
0.0
 11
136.12611990650001
 21
-372.40143660529998
 31
0.0
  0
LINE
  5
1E7
  8
0
 62
     0
 10
136.12611990650001
 20
-323.1456903202
 30
0.0
 11
136.12611990650001
 21
-318.1456903202
 31
0.0
  0
SOLID
  5
1E8
  8
0
 62
     0
 10
136.12611990650001
 20
-323.1456903202
 30
0.0
 11
133.87611990650001
 21
-314.1456903202
 31
0.0
 12
138.37611990650001
 22
-314.1456903202
 32
0.0
 13
136.12611990650001
 23
-316.3956903202
 33
0.0
  0
LINE
  5
1E9
  8
0
 62
     0
 10
136.12611990650001
 20
-338.6456903202
 30
0.0
 11
136.12611990650001
 21
-343.6456903202
 31
0.0
  0
SOLID
  5
1EA
  8
0
 62
     0
 10
136.12611990650001
 20
-338.6456903202
 30
0.0
 11
138.37611990650001
 21
-347.6456903202
 31
0.0
 12
133.87611990650001
 22
-347.6456903202
 32
0.0
 13
136.12611990650001
 23
-345.3956903202
 33
0.0
  0
ENDBLK
  5
1EB
  8
0
  0
BLOCK
  8
0
  2
*D19
 70
     1
 10
0.0
 20
0.0
 30
0.0
  3
*D19
  1

  0
TEXT
  5
231
  8
0
 62
     0
 10
50.022531503800003
 20
-457.70577524679987
 30
0.0
 40
9.8954164504999991
  1
23
  0
LINE
  5
232
  8
0
 62
     0
 10
67.343364710000003
 20
-480.53692129629991
 30
0.0
 11
67.343364710000003
 21
-459.45202520869998
 31
0.0
  0
LINE
  5
233
  8
0
 62
     0
 10
44.343364710000003
 20
-482.53692129629991
 30
0.0
 11
44.343364710000003
 21
-459.45202520869998
 31
0.0
  0
LINE
  5
234
  8
0
 62
     0
 10
67.343364710000003
 20
-460.45202520869998
 30
0.0
 11
67.343364710000003
 21
-460.45202520869998
 31
0.0
  0
LINE
  5
235
  8
0
 62
     0
 10
67.343364710000003
 20
-460.45202520869998
 30
0.0
 11
44.343364710000003
 21
-460.45202520869998
 31
0.0
  0
LINE
  5
236
  8
0
 62
     0
 10
44.343364710000003
 20
-460.45202520869998
 30
0.0
 11
67.343364710000003
 21
-460.45202520869998
 31
0.0
  0
LINE
  5
237
  8
0
 62
     0
 10
44.343364710000003
 20
-460.45202520869998
 30
0.0
 11
44.343364710000003
 21
-460.45202520869998
 31
0.0
  0
LINE
  5
238
  8
0
 62
     0
 10
44.343364710000003
 20
-460.45202520869998
 30
0.0
 11
49.343364710000003
 21
-460.45202520869998
 31
0.0
  0
SOLID
  5
239
  8
0
 62
     0
 10
44.343364710000003
 20
-460.45202520869998
 30
0.0
 11
53.343364710000003
 21
-458.20202520869998
 31
0.0
 12
53.343364710000003
 22
-462.70202520869998
 32
0.0
 13
51.093364710000003
 23
-460.45202520869998
 33
0.0
  0
LINE
  5
23A
  8
0
 62
     0
 10
67.343364710000003
 20
-460.45202520869998
 30
0.0
 11
62.343364710000003
 21
-460.45202520869998
 31
0.0
  0
SOLID
  5
23B
  8
0
 62
     0
 10
67.343364710000003
 20
-460.45202520869998
 30
0.0
 11
58.343364710000003
 21
-462.70202520869998
 31
0.0
 12
58.343364710000003
 22
-458.20202520869998
 32
0.0
 13
60.593364710000003
 23
-460.45202520869998
 33
0.0
  0
ENDBLK
  5
23C
  8
0
  0
BLOCK
  8
0
  2
*D20
 70
     1
 10
0.0
 20
0.0
 30
0.0
  3
*D20
  1

  0
TEXT
  5
240
  8
0
 62
     0
 10
-9.4561403712000001
 20
-457.70577524679987
 30
0.0
 40
9.8954164504999991
  1
14
  0
LINE
  5
241
  8
0
 62
     0
 10
3.364692835
 20
-480.53692129629991
 30
0.0
 11
3.364692835
 21
-459.45202520869998
 31
0.0
  0
LINE
  5
242
  8
0
 62
     0
 10
-10.635307165
 20
-482.53692264559987
 30
0.0
 11
-10.635307165
 21
-459.45202520869998
 31
0.0
  0
LINE
  5
243
  8
0
 62
     0
 10
3.364692835
 20
-460.45202520869998
 30
0.0
 11
3.364692835
 21
-460.45202520869998
 31
0.0
  0
LINE
  5
244
  8
0
 62
     0
 10
3.364692835
 20
-460.45202520869998
 30
0.0
 11
-10.635307165
 21
-460.45202520869998
 31
0.0
  0
LINE
  5
245
  8
0
 62
     0
 10
-10.635307165
 20
-460.45202520869998
 30
0.0
 11
3.364692835
 21
-460.45202520869998
 31
0.0
  0
LINE
  5
246
  8
0
 62
     0
 10
-10.635307165
 20
-460.45202520869998
 30
0.0
 11
-10.635307165
 21
-460.45202520869998
 31
0.0
  0
LINE
  5
247
  8
0
 62
     0
 10
-10.635307165
 20
-460.45202520869998
 30
0.0
 11
-15.635307165
 21
-460.45202520869998
 31
0.0
  0
SOLID
  5
248
  8
0
 62
     0
 10
-10.635307165
 20
-460.45202520869998
 30
0.0
 11
-19.635307165
 21
-462.70202520869998
 31
0.0
 12
-19.635307165
 22
-458.20202520869998
 32
0.0
 13
-17.385307165
 23
-460.45202520869998
 33
0.0
  0
LINE
  5
249
  8
0
 62
     0
 10
3.364692835
 20
-460.45202520869998
 30
0.0
 11
8.3646928349999996
 21
-460.45202520869998
 31
0.0
  0
SOLID
  5
24A
  8
0
 62
     0
 10
3.364692835
 20
-460.45202520869998
 30
0.0
 11
12.364692835
 21
-458.20202520869998
 31
0.0
 12
12.364692835
 22
-462.70202520869998
 32
0.0
 13
10.114692835
 23
-460.45202520869998
 33
0.0
  0
ENDBLK
  5
24B
  8
0
  0
BLOCK
  8
0
  2
*D21
 70
     1
 10
0.0
 20
0.0
 30
0.0
  3
*D21
  1

  0
TEXT
  5
24F
  8
0
 62
     0
 10
-66.811756922000001
 20
-622.86144840749989
 30
0.0
 40
9.8954164504999991
  1
15
 50
90.0
  0
LINE
  5
250
  8
0
 62
     0
 10
-114.3111124289
 20
-624.54061520129994
 30
0.0
 11
-63.065506960100002
 21
-624.54061520129994
 31
0.0
  0
LINE
  5
251
  8
0
 62
     0
 10
-114.3111124289
 20
-609.54061520129994
 30
0.0
 11
-63.065506960100002
 21
-609.54061520129994
 31
0.0
  0
LINE
  5
252
  8
0
 62
     0
 10
-64.065506960099995
 20
-624.54061520129994
 30
0.0
 11
-64.065506960099995
 21
-624.54061520129994
 31
0.0
  0
LINE
  5
253
  8
0
 62
     0
 10
-64.065506960099995
 20
-624.54061520129994
 30
0.0
 11
-64.065506960099995
 21
-609.54061520129994
 31
0.0
  0
LINE
  5
254
  8
0
 62
     0
 10
-64.065506960099995
 20
-609.54061520129994
 30
0.0
 11
-64.065506960099995
 21
-624.54061520129994
 31
0.0
  0
LINE
  5
255
  8
0
 62
     0
 10
-64.065506960099995
 20
-609.54061520129994
 30
0.0
 11
-64.065506960099995
 21
-609.54061520129994
 31
0.0
  0
LINE
  5
256
  8
0
 62
     0
 10
-64.065506960099995
 20
-609.54061520129994
 30
0.0
 11
-64.065506960099995
 21
-604.54061520129994
 31
0.0
  0
SOLID
  5
257
  8
0
 62
     0
 10
-64.065506960099995
 20
-609.54061520129994
 30
0.0
 11
-66.315506960100009
 21
-600.54061520129994
 31
0.0
 12
-61.815506960100002
 22
-600.54061520129994
 32
0.0
 13
-64.065506960099995
 23
-602.79061520129994
 33
0.0
  0
LINE
  5
258
  8
0
 62
     0
 10
-64.065506960099995
 20
-624.54061520129994
 30
0.0
 11
-64.065506960099995
 21
-629.54061520129994
 31
0.0
  0
SOLID
  5
259
  8
0
 62
     0
 10
-64.065506960099995
 20
-624.54061520129994
 30
0.0
 11
-61.815506960100002
 21
-633.54061520129994
 31
0.0
 12
-66.315506960100009
 22
-633.54061520129994
 32
0.0
 13
-64.065506960099995
 23
-631.29061520129994
 33
0.0
  0
ENDBLK
  5
25A
  8
0
  0
BLOCK
  8
0
  2
*D22
 70
     1
 10
0.0
 20
0.0
 30
0.0
  3
*D22
  1

  0
TEXT
  5
25E
  8
0
 62
     0
 10
-66.811756922000001
 20
-637.86144840750001
 30
0.0
 40
9.8954164504999991
  1
15
 50
90.0
  0
LINE
  5
25F
  8
0
 62
     0
 10
-114.3111124289
 20
-639.54061520129994
 30
0.0
 11
-63.065506960100002
 21
-639.54061520129994
 31
0.0
  0
LINE
  5
260
  8
0
 62
     0
 10
-114.3111124289
 20
-624.54061520129994
 30
0.0
 11
-63.065506960100002
 21
-624.54061520129994
 31
0.0
  0
LINE
  5
261
  8
0
 62
     0
 10
-64.065506960099995
 20
-639.54061520129994
 30
0.0
 11
-64.065506960099995
 21
-639.54061520129994
 31
0.0
  0
LINE
  5
262
  8
0
 62
     0
 10
-64.065506960099995
 20
-639.54061520129994
 30
0.0
 11
-64.065506960099995
 21
-624.54061520129994
 31
0.0
  0
LINE
  5
263
  8
0
 62
     0
 10
-64.065506960099995
 20
-624.54061520129994
 30
0.0
 11
-64.065506960099995
 21
-639.54061520129994
 31
0.0
  0
LINE
  5
264
  8
0
 62
     0
 10
-64.065506960099995
 20
-624.54061520129994
 30
0.0
 11
-64.065506960099995
 21
-624.54061520129994
 31
0.0
  0
LINE
  5
265
  8
0
 62
     0
 10
-64.065506960099995
 20
-624.54061520129994
 30
0.0
 11
-64.065506960099995
 21
-619.54061520129994
 31
0.0
  0
SOLID
  5
266
  8
0
 62
     0
 10
-64.065506960099995
 20
-624.54061520129994
 30
0.0
 11
-66.315506960100009
 21
-615.54061520129994
 31
0.0
 12
-61.815506960100002
 22
-615.54061520129994
 32
0.0
 13
-64.065506960099995
 23
-617.79061520129994
 33
0.0
  0
LINE
  5
267
  8
0
 62
     0
 10
-64.065506960099995
 20
-639.54061520129994
 30
0.0
 11
-64.065506960099995
 21
-644.54061520129994
 31
0.0
  0
SOLID
  5
268
  8
0
 62
     0
 10
-64.065506960099995
 20
-639.54061520129994
 30
0.0
 11
-61.815506960100002
 21
-648.54061520129994
 31
0.0
 12
-66.315506960100009
 22
-648.54061520129994
 32
0.0
 13
-64.065506960099995
 23
-646.29061520129994
 33
0.0
  0
ENDBLK
  5
269
  8
0
  0
BLOCK
  8
0
  2
*D23
 70
     1
 10
0.0
 20
0.0
 30
0.0
  3
*D23
  1

  0
TEXT
  5
26D
  8
0
 62
     0
 10
-66.811756922000001
 20
-517.86144840750001
 30
0.0
 40
9.8954164504999991
  1
15
 50
90.0
  0
LINE
  5
26E
  8
0
 62
     0
 10
-114.3111124289
 20
-519.54061520129994
 30
0.0
 11
-63.065506960100002
 21
-519.54061520129994
 31
0.0
  0
LINE
  5
26F
  8
0
 62
     0
 10
-114.3111124289
 20
-504.5406152013
 30
0.0
 11
-63.065506960100002
 21
-504.5406152013
 31
0.0
  0
LINE
  5
270
  8
0
 62
     0
 10
-64.065506960099995
 20
-519.54061520129994
 30
0.0
 11
-64.065506960099995
 21
-519.54061520129994
 31
0.0
  0
LINE
  5
271
  8
0
 62
     0
 10
-64.065506960099995
 20
-519.54061520129994
 30
0.0
 11
-64.065506960099995
 21
-504.5406152013
 31
0.0
  0
LINE
  5
272
  8
0
 62
     0
 10
-64.065506960099995
 20
-504.5406152013
 30
0.0
 11
-64.065506960099995
 21
-519.54061520129994
 31
0.0
  0
LINE
  5
273
  8
0
 62
     0
 10
-64.065506960099995
 20
-504.5406152013
 30
0.0
 11
-64.065506960099995
 21
-504.5406152013
 31
0.0
  0
LINE
  5
274
  8
0
 62
     0
 10
-64.065506960099995
 20
-504.5406152013
 30
0.0
 11
-64.065506960099995
 21
-499.5406152013
 31
0.0
  0
SOLID
  5
275
  8
0
 62
     0
 10
-64.065506960099995
 20
-504.5406152013
 30
0.0
 11
-66.315506960100009
 21
-495.5406152013
 31
0.0
 12
-61.815506960100002
 22
-495.5406152013
 32
0.0
 13
-64.065506960099995
 23
-497.7906152013
 33
0.0
  0
LINE
  5
276
  8
0
 62
     0
 10
-64.065506960099995
 20
-519.54061520129994
 30
0.0
 11
-64.065506960099995
 21
-524.54061520129994
 31
0.0
  0
SOLID
  5
277
  8
0
 62
     0
 10
-64.065506960099995
 20
-519.54061520129994
 30
0.0
 11
-61.815506960100002
 21
-528.54061520129994
 31
0.0
 12
-66.315506960100009
 22
-528.54061520129994
 32
0.0
 13
-64.065506960099995
 23
-526.29061520129994
 33
0.0
  0
ENDBLK
  5
278
  8
0
  0
BLOCK
  8
0
  2
*D24
 70
     1
 10
0.0
 20
0.0
 30
0.0
  3
*D24
  1

  0
TEXT
  5
27C
  8
0
 62
     0
 10
-66.811756922000001
 20
-532.86144840750001
 30
0.0
 40
9.8954164504999991
  1
15
 50
90.0
  0
LINE
  5
27D
  8
0
 62
     0
 10
-114.3111124289
 20
-534.54061520129994
 30
0.0
 11
-63.065506960100002
 21
-534.54061520129994
 31
0.0
  0
LINE
  5
27E
  8
0
 62
     0
 10
-114.3111124289
 20
-519.54061520129994
 30
0.0
 11
-63.065506960100002
 21
-519.54061520129994
 31
0.0
  0
LINE
  5
27F
  8
0
 62
     0
 10
-64.065506960099995
 20
-534.54061520129994
 30
0.0
 11
-64.065506960099995
 21
-534.54061520129994
 31
0.0
  0
LINE
  5
280
  8
0
 62
     0
 10
-64.065506960099995
 20
-534.54061520129994
 30
0.0
 11
-64.065506960099995
 21
-519.54061520129994
 31
0.0
  0
LINE
  5
281
  8
0
 62
     0
 10
-64.065506960099995
 20
-519.54061520129994
 30
0.0
 11
-64.065506960099995
 21
-534.54061520129994
 31
0.0
  0
LINE
  5
282
  8
0
 62
     0
 10
-64.065506960099995
 20
-519.54061520129994
 30
0.0
 11
-64.065506960099995
 21
-519.54061520129994
 31
0.0
  0
LINE
  5
283
  8
0
 62
     0
 10
-64.065506960099995
 20
-519.54061520129994
 30
0.0
 11
-64.065506960099995
 21
-514.54061520129994
 31
0.0
  0
SOLID
  5
284
  8
0
 62
     0
 10
-64.065506960099995
 20
-519.54061520129994
 30
0.0
 11
-66.315506960100009
 21
-510.54061520129989
 31
0.0
 12
-61.815506960100002
 22
-510.54061520129989
 32
0.0
 13
-64.065506960099995
 23
-512.79061520129994
 33
0.0
  0
LINE
  5
285
  8
0
 62
     0
 10
-64.065506960099995
 20
-534.54061520129994
 30
0.0
 11
-64.065506960099995
 21
-539.54061520129994
 31
0.0
  0
SOLID
  5
286
  8
0
 62
     0
 10
-64.065506960099995
 20
-534.54061520129994
 30
0.0
 11
-61.815506960100002
 21
-543.54061520129994
 31
0.0
 12
-66.315506960100009
 22
-543.54061520129994
 32
0.0
 13
-64.065506960099995
 23
-541.29061520129994
 33
0.0
  0
ENDBLK
  5
287
  8
0
  0
BLOCK
  8
0
  2
*D25
 70
     1
 10
0.0
 20
0.0
 30
0.0
  3
*D25
  1

  0
TEXT
  5
28B
  8
0
 62
     0
 10
-66.811756922000001
 20
-499.35960145500002
 30
0.0
 40
9.8954164504999991
  1
22
 50
90.0
  0
LINE
  5
28C
  8
0
 62
     0
 10
-114.3111124289
 20
-504.5406152013
 30
0.0
 11
-63.065506960100002
 21
-504.5406152013
 31
0.0
  0
LINE
  5
28D
  8
0
 62
     0
 10
-100.5611124289
 20
-482.53692129629991
 30
0.0
 11
-63.065506960100002
 21
-482.53692129629991
 31
0.0
  0
LINE
  5
28E
  8
0
 62
     0
 10
-64.065506960099995
 20
-504.5406152013
 30
0.0
 11
-64.065506960099995
 21
-504.5406152013
 31
0.0
  0
LINE
  5
28F
  8
0
 62
     0
 10
-64.065506960099995
 20
-504.5406152013
 30
0.0
 11
-64.065506960099995
 21
-482.53692129629991
 31
0.0
  0
LINE
  5
290
  8
0
 62
     0
 10
-64.065506960099995
 20
-482.53692129629991
 30
0.0
 11
-64.065506960099995
 21
-504.5406152013
 31
0.0
  0
LINE
  5
291
  8
0
 62
     0
 10
-64.065506960099995
 20
-482.53692129629991
 30
0.0
 11
-64.065506960099995
 21
-482.53692129629991
 31
0.0
  0
LINE
  5
292
  8
0
 62
     0
 10
-64.065506960099995
 20
-482.53692129629991
 30
0.0
 11
-64.065506960099995
 21
-487.53692129630002
 31
0.0
  0
SOLID
  5
293
  8
0
 62
     0
 10
-64.065506960099995
 20
-482.53692129629991
 30
0.0
 11
-61.815506960100002
 21
-491.53692129629991
 31
0.0
 12
-66.315506960100009
 22
-491.53692129629991
 32
0.0
 13
-64.065506960099995
 23
-489.28692129629991
 33
0.0
  0
LINE
  5
294
  8
0
 62
     0
 10
-64.065506960099995
 20
-504.5406152013
 30
0.0
 11
-64.065506960099995
 21
-499.5406152013
 31
0.0
  0
SOLID
  5
295
  8
0
 62
     0
 10
-64.065506960099995
 20
-504.5406152013
 30
0.0
 11
-66.315506960100009
 21
-495.5406152013
 31
0.0
 12
-61.815506960100002
 22
-495.5406152013
 32
0.0
 13
-64.065506960099995
 23
-497.7906152013
 33
0.0
  0
ENDBLK
  5
296
  8
0
  0
BLOCK
  8
0
  2
*D26
 70
     1
 10
0.0
 20
0.0
 30
0.0
  3
*D26
  1

  0
TEXT
  5
33F
  8
0
 62
     0
 10
-618.06336156370003
 20
-104.64709813419999
 30
0.0
 40
9.8954164504999991
  1
9
  0
LINE
  5
340
  8
0
 62
     0
 10
-610.65294496059994
 20
-147.6456903202
 30
0.0
 11
-610.65294496059994
 21
-106.3933480961
 31
0.0
  0
LINE
  5
341
  8
0
 62
     0
 10
-619.65294496059994
 20
-138.6456903202
 30
0.0
 11
-619.65294496059994
 21
-106.3933480961
 31
0.0
  0
LINE
  5
342
  8
0
 62
     0
 10
-610.65294496059994
 20
-107.3933480961
 30
0.0
 11
-610.65294496059994
 21
-107.3933480961
 31
0.0
  0
LINE
  5
343
  8
0
 62
     0
 10
-610.65294496059994
 20
-107.3933480961
 30
0.0
 11
-619.65294496059994
 21
-107.3933480961
 31
0.0
  0
LINE
  5
344
  8
0
 62
     0
 10
-619.65294496059994
 20
-107.3933480961
 30
0.0
 11
-610.65294496059994
 21
-107.3933480961
 31
0.0
  0
LINE
  5
345
  8
0
 62
     0
 10
-619.65294496059994
 20
-107.3933480961
 30
0.0
 11
-619.65294496059994
 21
-107.3933480961
 31
0.0
  0
LINE
  5
346
  8
0
 62
     0
 10
-619.65294496059994
 20
-107.3933480961
 30
0.0
 11
-624.65294496059994
 21
-107.3933480961
 31
0.0
  0
SOLID
  5
347
  8
0
 62
     0
 10
-619.65294496059994
 20
-107.3933480961
 30
0.0
 11
-628.65294496059994
 21
-109.6433480961
 31
0.0
 12
-628.65294496059994
 22
-105.1433480961
 32
0.0
 13
-626.40294496059994
 23
-107.3933480961
 33
0.0
  0
LINE
  5
348
  8
0
 62
     0
 10
-610.65294496059994
 20
-107.3933480961
 30
0.0
 11
-605.65294496059994
 21
-107.3933480961
 31
0.0
  0
SOLID
  5
349
  8
0
 62
     0
 10
-610.65294496059994
 20
-107.3933480961
 30
0.0
 11
-601.65294496059994
 21
-105.1433480961
 31
0.0
 12
-601.65294496059994
 22
-109.6433480961
 32
0.0
 13
-603.90294496059994
 23
-107.3933480961
 33
0.0
  0
ENDBLK
  5
34A
  8
0
  0
BLOCK
  8
0
  2
BALLON0
 70
     0
 10
0.0
 20
0.0
 30
0.0
  3
BALLON0
  1

  0
INSERT
  5
37A
  8
0
  6
CONTINUOUS
  2
*U81
 10
0.0
 20
0.0
 30
0.0
  0
CIRCLE
  5
37B
  8
┌▓È_1
 10
-662.79368190970001
 20
-365.85366193909999
 30
0.0
 40
10.0
  0
LINE
  5
37C
  8
Éíû@É³
 10
-646.12701524299996
 20
-365.85366193909999
 30
0.0
 11
-652.79368190970001
 21
-365.85366193909999
 31
0.0
  0
LINE
  5
37D
  8
Éíû@É³
 10
-611.45294496060001
 20
-417.61336639659999
 30
0.0
 11
-646.12701524299996
 21
-365.85366193909999
 31
0.0
  0
SOLID
  5
37E
  8
Éíû@É³
 10
-611.45294496060001
 20
-417.61336639659999
 30
0.0
 11
-618.68017061879993
 21
-410.41842308309992
 31
0.0
 12
-615.90543495709994
 22
-410.96691374649998
 32
0.0
 13
-615.90543495709994
 23
-410.96691374649998
 33
0.0
  0
SOLID
  5
37F
  8
Éíû@É³
 10
-615.90543495709994
 20
-410.96691374649998
 30
0.0
 11
-615.35694429370005
 21
-408.19217808479999
 31
0.0
 12
-611.45294496060001
 22
-417.61336639659999
 32
0.0
 13
-611.45294496060001
 23
-417.61336639659999
 33
0.0
  0
ENDBLK
  5
380
  8
0
  0
BLOCK
  8
0
  2
BALLON1
 70
     0
 10
0.0
 20
0.0
 30
0.0
  3
BALLON1
  1

  0
INSERT
  5
384
  8
0
  6
CONTINUOUS
  2
*U82
 10
0.0
 20
0.0
 30
0.0
  0
CIRCLE
  5
385
  8
┌▓È_1
 10
-571.92475485639989
 20
-365.85366193909999
 30
0.0
 40
10.0
  0
LINE
  5
386
  8
Éíû@É³
 10
-555.25808818969995
 20
-365.85366193909999
 30
0.0
 11
-561.9247548564
 21
-365.85366193909999
 31
0.0
  0
LINE
  5
387
  8
Éíû@É³
 10
-535.71365415080004
 20
-394.69754862389999
 30
0.0
 11
-555.25808818969995
 21
-365.85366193909999
 31
0.0
  0
SOLID
  5
388
  8
Éíû@É³
 10
-535.71365415080004
 20
-394.69754862389999
 30
0.0
 11
-542.97882790000006
 21
-387.54092578950002
 31
0.0
 12
-540.20123044490003
 22
-388.07473509760001
 32
0.0
 13
-540.20123044490003
 23
-388.07473509760001
 33
0.0
  0
SOLID
  5
389
  8
Éíû@É³
 10
-540.20123044490003
 20
-388.07473509760001
 30
0.0
 11
-539.66742113689986
 21
-385.29713764249999
 31
0.0
 12
-535.71365415080004
 22
-394.69754862389999
 32
0.0
 13
-535.71365415080004
 23
-394.69754862389999
 33
0.0
  0
ENDBLK
  5
38A
  8
0
  0
BLOCK
  8
0
  2
BALLON2
 70
     0
 10
0.0
 20
0.0
 30
0.0
  3
BALLON2
  1

  0
INSERT
  5
38E
  8
0
  6
CONTINUOUS
  2
*U83
 10
0.0
 20
0.0
 30
0.0
  0
CIRCLE
  5
38F
  8
┌▓È_1
 10
-504.97326340550001
 20
-365.85366193909999
 30
0.0
 40
10.0
  0
LINE
  5
390
  8
Éíû@É³
 10
-488.3065967389
 20
-365.85366193909999
 30
0.0
 11
-494.97326340550001
 21
-365.85366193909999
 31
0.0
  0
LINE
  5
391
  8
Éíû@É³
 10
-468.19834405180001
 20
-278.6961216373
 30
0.0
 11
-488.3065967389
 21
-365.85366193909999
 31
0.0
  0
SOLID
  5
392
  8
Éíû@É³
 10
-468.19834405180001
 20
-278.6961216373
 30
0.0
 11
-468.49759863579999
 21
-288.88976900680001
 31
0.0
 12
-469.99679332710002
 22
-286.49134967790002
 32
0.0
 13
-469.99679332710002
 23
-286.49134967790002
 33
0.0
  0
SOLID
  5
393
  8
Éíû@É³
 10
-469.99679332710002
 20
-286.49134967790002
 30
0.0
 11
-472.3952126561
 21
-287.99054436919999
 31
0.0
 12
-468.19834405180001
 22
-278.6961216373
 32
0.0
 13
-468.19834405180001
 23
-278.6961216373
 33
0.0
  0
ENDBLK
  5
394
  8
0
  0
BLOCK
  8
0
  2
*D30
 70
     1
 10
0.0
 20
0.0
 30
0.0
  3
*D30
  1

  0
TEXT
  5
48D
  8
0
 62
     0
 10
133.31972933489999
 20
-248.37694012950001
 30
0.0
 40
9.8954164504999991
  1
167
 50
90.0
  0
LINE
  5
48E
  8
0
 62
     0
 10
114.3406775542
 20
-323.1456903202
 30
0.0
 11
137.06597929680001
 21
-323.1456903202
 31
0.0
  0
LINE
  5
48F
  8
0
 62
     0
 10
114.3406775542
 20
-156.1456903202
 30
0.0
 11
137.06597929680001
 21
-156.1456903202
 31
0.0
  0
LINE
  5
490
  8
0
 62
     0
 10
136.06597929680001
 20
-323.1456903202
 30
0.0
 11
136.06597929680001
 21
-225.0936073048
 31
0.0
  0
LINE
  5
491
  8
0
 62
     0
 10
136.06597929680001
 20
-323.1456903202
 30
0.0
 11
136.06597929680001
 21
-254.1977733356
 31
0.0
  0
LINE
  5
492
  8
0
 62
     0
 10
136.06597929680001
 20
-156.1456903202
 30
0.0
 11
136.06597929680001
 21
-225.0936073048
 31
0.0
  0
LINE
  5
493
  8
0
 62
     0
 10
136.06597929680001
 20
-156.1456903202
 30
0.0
 11
136.06597929680001
 21
-254.1977733356
 31
0.0
  0
LINE
  5
494
  8
0
 62
     0
 10
136.06597929680001
 20
-156.1456903202
 30
0.0
 11
136.06597929680001
 21
-161.1456903202
 31
0.0
  0
SOLID
  5
495
  8
0
 62
     0
 10
136.06597929680001
 20
-156.1456903202
 30
0.0
 11
138.31597929680001
 21
-165.1456903202
 31
0.0
 12
133.81597929680001
 22
-165.1456903202
 32
0.0
 13
136.06597929680001
 23
-162.8956903202
 33
0.0
  0
LINE
  5
496
  8
0
 62
     0
 10
136.06597929680001
 20
-323.1456903202
 30
0.0
 11
136.06597929680001
 21
-318.1456903202
 31
0.0
  0
SOLID
  5
497
  8
0
 62
     0
 10
136.06597929680001
 20
-323.1456903202
 30
0.0
 11
133.81597929680001
 21
-314.1456903202
 31
0.0
 12
138.31597929680001
 22
-314.1456903202
 32
0.0
 13
136.06597929680001
 23
-316.3956903202
 33
0.0
  0
ENDBLK
  5
498
  8
0
  0
BLOCK
  8
0
  2
*D31
 70
     1
 10
0.0
 20
0.0
 30
0.0
  3
*D31
  1

  0
TEXT
  5
49C
  8
0
 62
     0
 10
18.878118310000001
 20
-248.37694012950001
 30
0.0
 40
9.8954164504999991
  1
198
 50
90.0
  0
LINE
  5
49D
  8
0
 62
     0
 10
-31.642516118700001
 20
-338.6456903202
 30
0.0
 11
22.624368271800002
 21
-338.6456903202
 31
0.0
  0
LINE
  5
49E
  8
0
 62
     0
 10
-19.652944960599999
 20
-140.6456903202
 30
0.0
 11
22.624368271800002
 21
-140.6456903202
 31
0.0
  0
LINE
  5
49F
  8
0
 62
     0
 10
21.624368271800002
 20
-338.6456903202
 30
0.0
 11
21.624368271800002
 21
-225.0936073048
 31
0.0
  0
LINE
  5
4A0
  8
0
 62
     0
 10
21.624368271800002
 20
-338.6456903202
 30
0.0
 11
21.624368271800002
 21
-254.1977733356
 31
0.0
  0
LINE
  5
4A1
  8
0
 62
     0
 10
21.624368271800002
 20
-140.6456903202
 30
0.0
 11
21.624368271800002
 21
-225.0936073048
 31
0.0
  0
LINE
  5
4A2
  8
0
 62
     0
 10
21.624368271800002
 20
-140.6456903202
 30
0.0
 11
21.624368271800002
 21
-254.1977733356
 31
0.0
  0
LINE
  5
4A3
  8
0
 62
     0
 10
21.624368271800002
 20
-140.6456903202
 30
0.0
 11
21.624368271800002
 21
-145.6456903202
 31
0.0
  0
SOLID
  5
4A4
  8
0
 62
     0
 10
21.624368271800002
 20
-140.6456903202
 30
0.0
 11
23.874368271800002
 21
-149.6456903202
 31
0.0
 12
19.374368271800002
 22
-149.6456903202
 32
0.0
 13
21.624368271800002
 23
-147.3956903202
 33
0.0
  0
LINE
  5
4A5
  8
0
 62
     0
 10
21.624368271800002
 20
-338.6456903202
 30
0.0
 11
21.624368271800002
 21
-333.6456903202
 31
0.0
  0
SOLID
  5
4A6
  8
0
 62
     0
 10
21.624368271800002
 20
-338.6456903202
 30
0.0
 11
19.374368271800002
 21
-329.6456903202
 31
0.0
 12
23.874368271800002
 22
-329.6456903202
 32
0.0
 13
21.624368271800002
 23
-331.8956903202
 33
0.0
  0
ENDBLK
  5
4A7
  8
0
  0
BLOCK
  8
0
  2
*D32
 70
     1
 10
0.0
 20
0.0
 30
0.0
  3
*D32
  1

  0
TEXT
  5
4B3
  8
0
 62
     0
 10
248.13229317060001
 20
-248.37694012950001
 30
0.0
 40
9.8954164504999991
  1
170
 50
90.0
  0
LINE
  5
4B4
  8
0
 62
     0
 10
231.46363186229999
 20
-324.64521896600002
 30
0.0
 11
251.8785431325
 21
-324.64521896600002
 31
0.0
  0
LINE
  5
4B5
  8
0
 62
     0
 10
231.46363186229999
 20
-154.64616167439999
 30
0.0
 11
251.8785431325
 21
-154.64616167439999
 31
0.0
  0
LINE
  5
4B6
  8
0
 62
     0
 10
250.8785431325
 20
-324.64521896600002
 30
0.0
 11
250.8785431325
 21
-225.0936073048
 31
0.0
  0
LINE
  5
4B7
  8
0
 62
     0
 10
250.8785431325
 20
-324.64521896600002
 30
0.0
 11
250.8785431325
 21
-254.1977733356
 31
0.0
  0
LINE
  5
4B8
  8
0
 62
     0
 10
250.8785431325
 20
-154.64616167439999
 30
0.0
 11
250.8785431325
 21
-225.0936073048
 31
0.0
  0
LINE
  5
4B9
  8
0
 62
     0
 10
250.8785431325
 20
-154.64616167439999
 30
0.0
 11
250.8785431325
 21
-254.1977733356
 31
0.0
  0
LINE
  5
4BA
  8
0
 62
     0
 10
250.8785431325
 20
-154.64616167439999
 30
0.0
 11
250.8785431325
 21
-159.64616167439999
 31
0.0
  0
SOLID
  5
4BB
  8
0
 62
     0
 10
250.8785431325
 20
-154.64616167439999
 30
0.0
 11
253.1285431325
 21
-163.64616167439999
 31
0.0
 12
248.6285431325
 22
-163.64616167439999
 32
0.0
 13
250.8785431325
 23
-161.39616167439999
 33
0.0
  0
LINE
  5
4BC
  8
0
 62
     0
 10
250.8785431325
 20
-324.64521896600002
 30
0.0
 11
250.8785431325
 21
-319.6452189659999
 31
0.0
  0
SOLID
  5
4BD
  8
0
 62
     0
 10
250.8785431325
 20
-324.64521896600002
 30
0.0
 11
248.6285431325
 21
-315.6452189659999
 31
0.0
 12
253.1285431325
 22
-315.6452189659999
 32
0.0
 13
250.8785431325
 23
-317.8952189659999
 33
0.0
  0
ENDBLK
  5
4BE
  8
0
  0
BLOCK
  8
0
  2
*D33
 70
     1
 10
0.0
 20
0.0
 30
0.0
  3
*D33
  1

  0
TEXT
  5
4CE
  8
0
 62
     0
 10
-726.09201138039987
 20
-604.62021016029985
 30
0.0
 40
9.8954164504999991
  1
2-â│15
 50
26.776143397399998
  0
LINE
  5
4CF
  8
0
 62
     0
 10
-659.04021088800005
 20
-575.34890467900004
 30
0.0
 11
-724.25638779220003
 21
-608.25789000559985
 31
0.0
  0
SOLID
  5
4D0
  8
0
 62
     0
 10
-659.04021088800005
 20
-575.34890467900004
 30
0.0
 11
-666.06153400739993
 21
-581.41219765009998
 31
0.0
 12
-668.08881033269995
 22
-577.39471700909996
 32
0.0
 13
-665.06643184949996
 23
-578.38981916699993
 33
0.0
  0
ENDBLK
  5
4D1
  8
0
  0
BLOCK
  8
0
  2
*D34
 70
     1
 10
0.0
 20
0.0
 30
0.0
  3
*D34
  1

  0
TEXT
  5
4D5
  8
0
 62
     0
 10
-583.13194563510001
 20
-591.1781714681
 30
0.0
 40
9.8954164504999991
  1
22
  0
LINE
  5
4D6
  8
0
 62
     0
 10
-566.31111242889995
 20
-607.54061520129994
 30
0.0
 11
-566.31111242889995
 21
-592.92442142990001
 31
0.0
  0
LINE
  5
4D7
  8
0
 62
     0
 10
-588.31111242889995
 20
-607.54061520129994
 30
0.0
 11
-588.31111242889995
 21
-592.92442142990001
 31
0.0
  0
LINE
  5
4D8
  8
0
 62
     0
 10
-566.31111242889995
 20
-593.92442142990001
 30
0.0
 11
-566.31111242889995
 21
-593.92442142990001
 31
0.0
  0
LINE
  5
4D9
  8
0
 62
     0
 10
-566.31111242889995
 20
-593.92442142990001
 30
0.0
 11
-588.31111242889995
 21
-593.92442142990001
 31
0.0
  0
LINE
  5
4DA
  8
0
 62
     0
 10
-588.31111242889995
 20
-593.92442142990001
 30
0.0
 11
-566.31111242889995
 21
-593.92442142990001
 31
0.0
  0
LINE
  5
4DB
  8
0
 62
     0
 10
-588.31111242889995
 20
-593.92442142990001
 30
0.0
 11
-588.31111242889995
 21
-593.92442142990001
 31
0.0
  0
LINE
  5
4DC
  8
0
 62
     0
 10
-588.31111242889995
 20
-593.92442142990001
 30
0.0
 11
-583.31111242889995
 21
-593.92442142990001
 31
0.0
  0
SOLID
  5
4DD
  8
0
 62
     0
 10
-588.31111242889995
 20
-593.92442142990001
 30
0.0
 11
-579.31111242889995
 21
-591.67442142990001
 31
0.0
 12
-579.31111242889995
 22
-596.17442142990001
 32
0.0
 13
-581.56111242889995
 23
-593.92442142990001
 33
0.0
  0
LINE
  5
4DE
  8
0
 62
     0
 10
-566.31111242889995
 20
-593.92442142990001
 30
0.0
 11
-571.31111242889995
 21
-593.92442142990001
 31
0.0
  0
SOLID
  5
4DF
  8
0
 62
     0
 10
-566.31111242889995
 20
-593.92442142990001
 30
0.0
 11
-575.31111242889995
 21
-596.17442142990001
 31
0.0
 12
-575.31111242889995
 22
-591.67442142990001
 32
0.0
 13
-573.06111242889995
 23
-593.92442142990001
 33
0.0
  0
ENDBLK
  5
4E0
  8
0
  0
BLOCK
  8
0
  2
*D35
 70
     1
 10
0.0
 20
0.0
 30
0.0
  3
*D35
  1

  0
TEXT
  5
4E4
  8
0
 62
     0
 10
-548.55736239079999
 20
-612.45103180440003
 30
0.0
 40
9.8954164504999991
  1
7
 50
90.0
  0
LINE
  5
4E5
  8
0
 62
     0
 10
-567.81111242889995
 20
-613.04061520129994
 30
0.0
 11
-544.81111242889995
 21
-613.04061520129994
 31
0.0
  0
LINE
  5
4E6
  8
0
 62
     0
 10
-567.81111242889995
 20
-606.04061520129994
 30
0.0
 11
-544.81111242889995
 21
-606.04061520129994
 31
0.0
  0
LINE
  5
4E7
  8
0
 62
     0
 10
-545.81111242889995
 20
-613.04061520129994
 30
0.0
 11
-545.81111242889995
 21
-613.04061520129994
 31
0.0
  0
LINE
  5
4E8
  8
0
 62
     0
 10
-545.81111242889995
 20
-613.04061520129994
 30
0.0
 11
-545.81111242889995
 21
-606.04061520129994
 31
0.0
  0
LINE
  5
4E9
  8
0
 62
     0
 10
-545.81111242889995
 20
-606.04061520129994
 30
0.0
 11
-545.81111242889995
 21
-613.04061520129994
 31
0.0
  0
LINE
  5
4EA
  8
0
 62
     0
 10
-545.81111242889995
 20
-606.04061520129994
 30
0.0
 11
-545.81111242889995
 21
-606.04061520129994
 31
0.0
  0
LINE
  5
4EB
  8
0
 62
     0
 10
-545.81111242889995
 20
-606.04061520129994
 30
0.0
 11
-545.81111242889995
 21
-601.04061520129994
 31
0.0
  0
SOLID
  5
4EC
  8
0
 62
     0
 10
-545.81111242889995
 20
-606.04061520129994
 30
0.0
 11
-548.06111242889995
 21
-597.04061520129994
 31
0.0
 12
-543.56111242889995
 22
-597.04061520129994
 32
0.0
 13
-545.81111242889995
 23
-599.29061520129994
 33
0.0
  0
LINE
  5
4ED
  8
0
 62
     0
 10
-545.81111242889995
 20
-613.04061520129994
 30
0.0
 11
-545.81111242889995
 21
-618.04061520129994
 31
0.0
  0
SOLID
  5
4EE
  8
0
 62
     0
 10
-545.81111242889995
 20
-613.04061520129994
 30
0.0
 11
-543.56111242889995
 21
-622.04061520129994
 31
0.0
 12
-548.06111242889995
 22
-622.04061520129994
 32
0.0
 13
-545.81111242889995
 23
-619.79061520129994
 33
0.0
  0
ENDBLK
  5
4EF
  8
0
  0
BLOCK
  8
0
  2
*D36
 70
     1
 10
0.0
 20
0.0
 30
0.0
  3
*D36
  1

  0
TEXT
  5
4F3
  8
0
 62
     0
 10
-545.63194563510001
 20
-686.79067261249986
 30
0.0
 40
9.8954164504999991
  1
75
  0
LINE
  5
4F4
  8
0
 62
     0
 10
-577.31111242889995
 20
-645.04061520129994
 30
0.0
 11
-577.31111242889995
 21
-690.53692257429987
 31
0.0
  0
LINE
  5
4F5
  8
0
 62
     0
 10
-502.3111124289
 20
-645.04061520129994
 30
0.0
 11
-502.3111124289
 21
-690.53692257429987
 31
0.0
  0
LINE
  5
4F6
  8
0
 62
     0
 10
-577.31111242889995
 20
-689.53692257429987
 30
0.0
 11
-528.16944601650005
 21
-689.53692257429987
 31
0.0
  0
LINE
  5
4F7
  8
0
 62
     0
 10
-577.31111242889995
 20
-689.53692257429987
 30
0.0
 11
-551.45277884129985
 21
-689.53692257429987
 31
0.0
  0
LINE
  5
4F8
  8
0
 62
     0
 10
-502.3111124289
 20
-689.53692257429987
 30
0.0
 11
-528.16944601650005
 21
-689.53692257429987
 31
0.0
  0
LINE
  5
4F9
  8
0
 62
     0
 10
-502.3111124289
 20
-689.53692257429987
 30
0.0
 11
-551.45277884129985
 21
-689.53692257429987
 31
0.0
  0
LINE
  5
4FA
  8
0
 62
     0
 10
-502.3111124289
 20
-689.53692257429987
 30
0.0
 11
-507.3111124289
 21
-689.53692257429987
 31
0.0
  0
SOLID
  5
4FB
  8
0
 62
     0
 10
-502.3111124289
 20
-689.53692257429987
 30
0.0
 11
-511.3111124289
 21
-691.78692257429987
 31
0.0
 12
-511.3111124289
 22
-687.28692257429987
 32
0.0
 13
-509.0611124289
 23
-689.53692257429987
 33
0.0
  0
LINE
  5
4FC
  8
0
 62
     0
 10
-577.31111242889995
 20
-689.53692257429987
 30
0.0
 11
-572.31111242889995
 21
-689.53692257429987
 31
0.0
  0
SOLID
  5
4FD
  8
0
 62
     0
 10
-577.31111242889995
 20
-689.53692257429987
 30
0.0
 11
-568.31111242889995
 21
-687.28692257429987
 31
0.0
 12
-568.31111242889995
 22
-691.78692257429987
 32
0.0
 13
-570.56111242889995
 23
-689.53692257429987
 33
0.0
  0
ENDBLK
  5
4FE
  8
0
  0
BLOCK
  8
0
  2
*D37
 70
     1
 10
0.0
 20
0.0
 30
0.0
  3
*D37
  1

  0
TEXT
  5
502
  8
0
 62
     0
 10
-678.54045242589984
 20
-686.79067133440003
 30
0.0
 40
9.8954164504999991
  1
26.75
  0
LINE
  5
503
  8
0
 62
     0
 10
-679.06111242889995
 20
-661.53692129629985
 30
0.0
 11
-679.06111242889995
 21
-690.53692129630008
 31
0.0
  0
LINE
  5
504
  8
0
 62
     0
 10
-652.31111242889995
 20
-645.04061520129994
 30
0.0
 11
-652.31111242889995
 21
-690.53692129630008
 31
0.0
  0
LINE
  5
505
  8
0
 62
     0
 10
-679.06111242889995
 20
-689.53692129629997
 30
0.0
 11
-679.06111242889995
 21
-689.53692129629997
 31
0.0
  0
LINE
  5
506
  8
0
 62
     0
 10
-679.06111242889995
 20
-689.53692129629997
 30
0.0
 11
-652.31111242889995
 21
-689.53692129629997
 31
0.0
  0
LINE
  5
507
  8
0
 62
     0
 10
-652.31111242889995
 20
-689.53692129629997
 30
0.0
 11
-679.06111242889995
 21
-689.53692129629997
 31
0.0
  0
LINE
  5
508
  8
0
 62
     0
 10
-652.31111242889995
 20
-689.53692129629997
 30
0.0
 11
-652.31111242889995
 21
-689.53692129629997
 31
0.0
  0
LINE
  5
509
  8
0
 62
     0
 10
-652.31111242889995
 20
-689.53692129629997
 30
0.0
 11
-657.31111242889995
 21
-689.53692129629997
 31
0.0
  0
SOLID
  5
50A
  8
0
 62
     0
 10
-652.31111242889995
 20
-689.53692129629997
 30
0.0
 11
-661.31111242889995
 21
-691.78692129629997
 31
0.0
 12
-661.31111242889995
 22
-687.28692129629997
 32
0.0
 13
-659.06111242889995
 23
-689.53692129629997
 33
0.0
  0
LINE
  5
50B
  8
0
 62
     0
 10
-679.06111242889995
 20
-689.53692129629997
 30
0.0
 11
-674.06111242889995
 21
-689.53692129629997
 31
0.0
  0
SOLID
  5
50C
  8
0
 62
     0
 10
-679.06111242889995
 20
-689.53692129629997
 30
0.0
 11
-670.06111242889995
 21
-687.28692129629997
 31
0.0
 12
-670.06111242889995
 22
-691.78692129629997
 32
0.0
 13
-672.31111242889995
 23
-689.53692129629997
 33
0.0
  0
ENDBLK
  5
50D
  8
0
  0
BLOCK
  8
0
  2
*D38
 70
     1
 10
0.0
 20
0.0
 30
0.0
  3
*D38
  1

  0
TEXT
  5
511
  8
0
 62
     0
 10
-620.63194563510001
 20
-686.79067261249986
 30
0.0
 40
9.8954164504999991
  1
75
  0
LINE
  5
512
  8
0
 62
     0
 10
-652.31111242889995
 20
-645.04061520129994
 30
0.0
 11
-652.31111242889995
 21
-690.53692257429987
 31
0.0
  0
LINE
  5
513
  8
0
 62
     0
 10
-577.31111242889995
 20
-645.04061520129994
 30
0.0
 11
-577.31111242889995
 21
-690.53692257429987
 31
0.0
  0
LINE
  5
514
  8
0
 62
     0
 10
-652.31111242889995
 20
-689.53692257429987
 30
0.0
 11
-603.16944601650005
 21
-689.53692257429987
 31
0.0
  0
LINE
  5
515
  8
0
 62
     0
 10
-652.31111242889995
 20
-689.53692257429987
 30
0.0
 11
-626.45277884129985
 21
-689.53692257429987
 31
0.0
  0
LINE
  5
516
  8
0
 62
     0
 10
-577.31111242889995
 20
-689.53692257429987
 30
0.0
 11
-603.16944601650005
 21
-689.53692257429987
 31
0.0
  0
LINE
  5
517
  8
0
 62
     0
 10
-577.31111242889995
 20
-689.53692257429987
 30
0.0
 11
-626.45277884129985
 21
-689.53692257429987
 31
0.0
  0
LINE
  5
518
  8
0
 62
     0
 10
-577.31111242889995
 20
-689.53692257429987
 30
0.0
 11
-582.31111242889995
 21
-689.53692257429987
 31
0.0
  0
SOLID
  5
519
  8
0
 62
     0
 10
-577.31111242889995
 20
-689.53692257429987
 30
0.0
 11
-586.31111242889995
 21
-691.78692257429987
 31
0.0
 12
-586.31111242889995
 22
-687.28692257429987
 32
0.0
 13
-584.06111242889995
 23
-689.53692257429987
 33
0.0
  0
LINE
  5
51A
  8
0
 62
     0
 10
-652.31111242889995
 20
-689.53692257429987
 30
0.0
 11
-647.31111242889995
 21
-689.53692257429987
 31
0.0
  0
SOLID
  5
51B
  8
0
 62
     0
 10
-652.31111242889995
 20
-689.53692257429987
 30
0.0
 11
-643.31111242889995
 21
-687.28692257429987
 31
0.0
 12
-643.31111242889995
 22
-691.78692257429987
 32
0.0
 13
-645.56111242889995
 23
-689.53692257429987
 33
0.0
  0
ENDBLK
  5
51C
  8
0
  0
BLOCK
  8
0
  2
*D39
 70
     1
 10
0.0
 20
0.0
 30
0.0
  3
*D39
  1

  0
TEXT
  5
522
  8
0
 62
     0
 10
-320.63194563510001
 20
-686.79067261249986
 30
0.0
 40
9.8954164504999991
  1
75
  0
LINE
  5
523
  8
0
 62
     0
 10
-352.3111124289
 20
-645.04061520129994
 30
0.0
 11
-352.3111124289
 21
-690.53692257429987
 31
0.0
  0
LINE
  5
524
  8
0
 62
     0
 10
-277.3111124289
 20
-645.04061520129994
 30
0.0
 11
-277.3111124289
 21
-690.53692257429987
 31
0.0
  0
LINE
  5
525
  8
0
 62
     0
 10
-352.3111124289
 20
-689.53692257429987
 30
0.0
 11
-303.16944601649999
 21
-689.53692257429987
 31
0.0
  0
LINE
  5
526
  8
0
 62
     0
 10
-352.3111124289
 20
-689.53692257429987
 30
0.0
 11
-326.45277884130002
 21
-689.53692257429987
 31
0.0
  0
LINE
  5
527
  8
0
 62
     0
 10
-277.3111124289
 20
-689.53692257429987
 30
0.0
 11
-303.16944601649999
 21
-689.53692257429987
 31
0.0
  0
LINE
  5
528
  8
0
 62
     0
 10
-277.3111124289
 20
-689.53692257429987
 30
0.0
 11
-326.45277884130002
 21
-689.53692257429987
 31
0.0
  0
LINE
  5
529
  8
0
 62
     0
 10
-277.3111124289
 20
-689.53692257429987
 30
0.0
 11
-282.3111124289
 21
-689.53692257429987
 31
0.0
  0
SOLID
  5
52A
  8
0
 62
     0
 10
-277.3111124289
 20
-689.53692257429987
 30
0.0
 11
-286.3111124289
 21
-691.78692257429987
 31
0.0
 12
-286.3111124289
 22
-687.28692257429987
 32
0.0
 13
-284.0611124289
 23
-689.53692257429987
 33
0.0
  0
LINE
  5
52B
  8
0
 62
     0
 10
-352.3111124289
 20
-689.53692257429987
 30
0.0
 11
-347.3111124289
 21
-689.53692257429987
 31
0.0
  0
SOLID
  5
52C
  8
0
 62
     0
 10
-352.3111124289
 20
-689.53692257429987
 30
0.0
 11
-343.3111124289
 21
-687.28692257429987
 31
0.0
 12
-343.3111124289
 22
-691.78692257429987
 32
0.0
 13
-345.5611124289
 23
-689.53692257429987
 33
0.0
  0
ENDBLK
  5
52D
  8
0
  0
BLOCK
  8
0
  2
*D40
 70
     1
 10
0.0
 20
0.0
 30
0.0
  3
*D40
  1

  0
TEXT
  5
531
  8
0
 62
     0
 10
-245.63194563510001
 20
-686.79067261249986
 30
0.0
 40
9.8954164504999991
  1
75
  0
LINE
  5
532
  8
0
 62
     0
 10
-277.3111124289
 20
-645.04061520129994
 30
0.0
 11
-277.3111124289
 21
-690.53692257429987
 31
0.0
  0
LINE
  5
533
  8
0
 62
     0
 10
-202.3111124289
 20
-645.04061520129994
 30
0.0
 11
-202.3111124289
 21
-690.53692257429987
 31
0.0
  0
LINE
  5
534
  8
0
 62
     0
 10
-277.3111124289
 20
-689.53692257429987
 30
0.0
 11
-228.16944601649999
 21
-689.53692257429987
 31
0.0
  0
LINE
  5
535
  8
0
 62
     0
 10
-277.3111124289
 20
-689.53692257429987
 30
0.0
 11
-251.45277884129999
 21
-689.53692257429987
 31
0.0
  0
LINE
  5
536
  8
0
 62
     0
 10
-202.3111124289
 20
-689.53692257429987
 30
0.0
 11
-228.16944601649999
 21
-689.53692257429987
 31
0.0
  0
LINE
  5
537
  8
0
 62
     0
 10
-202.3111124289
 20
-689.53692257429987
 30
0.0
 11
-251.45277884129999
 21
-689.53692257429987
 31
0.0
  0
LINE
  5
538
  8
0
 62
     0
 10
-202.3111124289
 20
-689.53692257429987
 30
0.0
 11
-207.3111124289
 21
-689.53692257429987
 31
0.0
  0
SOLID
  5
539
  8
0
 62
     0
 10
-202.3111124289
 20
-689.53692257429987
 30
0.0
 11
-211.3111124289
 21
-691.78692257429987
 31
0.0
 12
-211.3111124289
 22
-687.28692257429987
 32
0.0
 13
-209.0611124289
 23
-689.53692257429987
 33
0.0
  0
LINE
  5
53A
  8
0
 62
     0
 10
-277.3111124289
 20
-689.53692257429987
 30
0.0
 11
-272.3111124289
 21
-689.53692257429987
 31
0.0
  0
SOLID
  5
53B
  8
0
 62
     0
 10
-277.3111124289
 20
-689.53692257429987
 30
0.0
 11
-268.3111124289
 21
-687.28692257429987
 31
0.0
 12
-268.3111124289
 22
-691.78692257429987
 32
0.0
 13
-270.5611124289
 23
-689.53692257429987
 33
0.0
  0
ENDBLK
  5
53C
  8
0
  0
BLOCK
  8
0
  2
*D41
 70
     1
 10
0.0
 20
0.0
 30
0.0
  3
*D41
  1

  0
TEXT
  5
540
  8
0
 62
     0
 10
-395.63194563510001
 20
-686.79067261249986
 30
0.0
 40
9.8954164504999991
  1
75
  0
LINE
  5
541
  8
0
 62
     0
 10
-427.3111124289
 20
-645.04061520129994
 30
0.0
 11
-427.3111124289
 21
-690.53692257429987
 31
0.0
  0
LINE
  5
542
  8
0
 62
     0
 10
-352.3111124289
 20
-645.04061520129994
 30
0.0
 11
-352.3111124289
 21
-690.53692257429987
 31
0.0
  0
LINE
  5
543
  8
0
 62
     0
 10
-427.3111124289
 20
-689.53692257429987
 30
0.0
 11
-378.16944601649999
 21
-689.53692257429987
 31
0.0
  0
LINE
  5
544
  8
0
 62
     0
 10
-427.3111124289
 20
-689.53692257429987
 30
0.0
 11
-401.4527788412999
 21
-689.53692257429987
 31
0.0
  0
LINE
  5
545
  8
0
 62
     0
 10
-352.3111124289
 20
-689.53692257429987
 30
0.0
 11
-378.16944601649999
 21
-689.53692257429987
 31
0.0
  0
LINE
  5
546
  8
0
 62
     0
 10
-352.3111124289
 20
-689.53692257429987
 30
0.0
 11
-401.4527788412999
 21
-689.53692257429987
 31
0.0
  0
LINE
  5
547
  8
0
 62
     0
 10
-352.3111124289
 20
-689.53692257429987
 30
0.0
 11
-357.3111124289
 21
-689.53692257429987
 31
0.0
  0
SOLID
  5
548
  8
0
 62
     0
 10
-352.3111124289
 20
-689.53692257429987
 30
0.0
 11
-361.3111124289
 21
-691.78692257429987
 31
0.0
 12
-361.3111124289
 22
-687.28692257429987
 32
0.0
 13
-359.0611124289
 23
-689.53692257429987
 33
0.0
  0
LINE
  5
549
  8
0
 62
     0
 10
-427.3111124289
 20
-689.53692257429987
 30
0.0
 11
-422.31111242889989
 21
-689.53692257429987
 31
0.0
  0
SOLID
  5
54A
  8
0
 62
     0
 10
-427.3111124289
 20
-689.53692257429987
 30
0.0
 11
-418.31111242889989
 21
-687.28692257429987
 31
0.0
 12
-418.31111242889989
 22
-691.78692257429987
 32
0.0
 13
-420.56111242889989
 23
-689.53692257429987
 33
0.0
  0
ENDBLK
  5
54B
  8
0
  0
BLOCK
  8
0
  2
*D42
 70
     1
 10
0.0
 20
0.0
 30
0.0
  3
*D42
  1

  0
TEXT
  5
555
  8
0
 62
     0
 10
-126.7904524259
 20
-686.79067133440003
 30
0.0
 40
9.8954164504999991
  1
26.75
  0
LINE
  5
556
  8
0
 62
     0
 10
-127.3111124289
 20
-645.04061520129994
 30
0.0
 11
-127.3111124289
 21
-690.53692129630008
 31
0.0
  0
LINE
  5
557
  8
0
 62
     0
 10
-100.5611124289
 20
-661.53692129629985
 30
0.0
 11
-100.5611124289
 21
-690.53692129630008
 31
0.0
  0
LINE
  5
558
  8
0
 62
     0
 10
-127.3111124289
 20
-689.53692129629997
 30
0.0
 11
-127.3111124289
 21
-689.53692129629997
 31
0.0
  0
LINE
  5
559
  8
0
 62
     0
 10
-127.3111124289
 20
-689.53692129629997
 30
0.0
 11
-100.5611124289
 21
-689.53692129629997
 31
0.0
  0
LINE
  5
55A
  8
0
 62
     0
 10
-100.5611124289
 20
-689.53692129629997
 30
0.0
 11
-127.3111124289
 21
-689.53692129629997
 31
0.0
  0
LINE
  5
55B
  8
0
 62
     0
 10
-100.5611124289
 20
-689.53692129629997
 30
0.0
 11
-100.5611124289
 21
-689.53692129629997
 31
0.0
  0
LINE
  5
55C
  8
0
 62
     0
 10
-100.5611124289
 20
-689.53692129629997
 30
0.0
 11
-105.5611124289
 21
-689.53692129629997
 31
0.0
  0
SOLID
  5
55D
  8
0
 62
     0
 10
-100.5611124289
 20
-689.53692129629997
 30
0.0
 11
-109.5611124289
 21
-691.78692129629997
 31
0.0
 12
-109.5611124289
 22
-687.28692129629997
 32
0.0
 13
-107.3111124289
 23
-689.53692129629997
 33
0.0
  0
LINE
  5
55E
  8
0
 62
     0
 10
-127.3111124289
 20
-689.53692129629997
 30
0.0
 11
-122.3111124289
 21
-689.53692129629997
 31
0.0
  0
SOLID
  5
55F
  8
0
 62
     0
 10
-127.3111124289
 20
-689.53692129629997
 30
0.0
 11
-118.3111124289
 21
-687.28692129629997
 31
0.0
 12
-118.3111124289
 22
-691.78692129629997
 32
0.0
 13
-120.5611124289
 23
-689.53692129629997
 33
0.0
  0
ENDBLK
  5
560
  8
0
  0
BLOCK
  8
0
  2
*D43
 70
     1
 10
0.0
 20
0.0
 30
0.0
  3
*D43
  1

  0
TEXT
  5
564
  8
0
 62
     0
 10
-66.811756922000001
 20
-656.35960145499985
 30
0.0
 40
9.8954164504999991
  1
22
 50
90.0
  0
LINE
  5
565
  8
0
 62
     0
 10
-100.5611124289
 20
-661.53692129629985
 30
0.0
 11
-63.065506960100002
 21
-661.53692129629985
 31
0.0
  0
LINE
  5
566
  8
0
 62
     0
 10
-114.3111124289
 20
-639.54061520129994
 30
0.0
 11
-63.065506960100002
 21
-639.54061520129994
 31
0.0
  0
LINE
  5
567
  8
0
 62
     0
 10
-64.065506960099995
 20
-661.53692129629985
 30
0.0
 11
-64.065506960099995
 21
-661.53692129629985
 31
0.0
  0
LINE
  5
568
  8
0
 62
     0
 10
-64.065506960099995
 20
-661.53692129629985
 30
0.0
 11
-64.065506960099995
 21
-639.54061520129994
 31
0.0
  0
LINE
  5
569
  8
0
 62
     0
 10
-64.065506960099995
 20
-639.54061520129994
 30
0.0
 11
-64.065506960099995
 21
-661.53692129629985
 31
0.0
  0
LINE
  5
56A
  8
0
 62
     0
 10
-64.065506960099995
 20
-639.54061520129994
 30
0.0
 11
-64.065506960099995
 21
-639.54061520129994
 31
0.0
  0
LINE
  5
56B
  8
0
 62
     0
 10
-64.065506960099995
 20
-639.54061520129994
 30
0.0
 11
-64.065506960099995
 21
-644.54061520129994
 31
0.0
  0
SOLID
  5
56C
  8
0
 62
     0
 10
-64.065506960099995
 20
-639.54061520129994
 30
0.0
 11
-61.815506960100002
 21
-648.54061520129994
 31
0.0
 12
-66.315506960100009
 22
-648.54061520129994
 32
0.0
 13
-64.065506960099995
 23
-646.29061520129994
 33
0.0
  0
LINE
  5
56D
  8
0
 62
     0
 10
-64.065506960099995
 20
-661.53692129629985
 30
0.0
 11
-64.065506960099995
 21
-656.53692129629985
 31
0.0
  0
SOLID
  5
56E
  8
0
 62
     0
 10
-64.065506960099995
 20
-661.53692129629985
 30
0.0
 11
-66.315506960100009
 21
-652.53692129629985
 31
0.0
 12
-61.815506960100002
 22
-652.53692129629985
 32
0.0
 13
-64.065506960099995
 23
-654.78692129629985
 33
0.0
  0
ENDBLK
  5
56F
  8
0
  0
BLOCK
  8
0
  2
*D44
 70
     1
 10
0.0
 20
0.0
 30
0.0
  3
*D44
  1

  0
TEXT
  5
573
  8
0
 62
     0
 10
-44.170872522599993
 20
-580.77186265959995
 30
0.0
 40
9.8954164504999991
  1
179
 50
90.0
  0
LINE
  5
574
  8
0
 62
     0
 10
-100.5611124289
 20
-661.53692129629985
 30
0.0
 11
-40.424622560700001
 21
-661.53692129629985
 31
0.0
  0
LINE
  5
575
  8
0
 62
     0
 10
-100.5611124289
 20
-482.53692129629991
 30
0.0
 11
-40.424622560700001
 21
-482.53692129629991
 31
0.0
  0
LINE
  5
576
  8
0
 62
     0
 10
-41.424622560699987
 20
-661.53692129629985
 30
0.0
 11
-41.424622560699987
 21
-557.48852983489985
 31
0.0
  0
LINE
  5
577
  8
0
 62
     0
 10
-41.424622560699987
 20
-661.53692129629985
 30
0.0
 11
-41.424622560699987
 21
-586.59269586580001
 31
0.0
  0
LINE
  5
578
  8
0
 62
     0
 10
-41.424622560699987
 20
-482.53692129629991
 30
0.0
 11
-41.424622560699987
 21
-557.48852983489985
 31
0.0
  0
LINE
  5
579
  8
0
 62
     0
 10
-41.424622560699987
 20
-482.53692129629991
 30
0.0
 11
-41.424622560699987
 21
-586.59269586580001
 31
0.0
  0
LINE
  5
57A
  8
0
 62
     0
 10
-41.424622560699987
 20
-482.53692129629991
 30
0.0
 11
-41.424622560699987
 21
-487.53692129630002
 31
0.0
  0
SOLID
  5
57B
  8
0
 62
     0
 10
-41.424622560699987
 20
-482.53692129629991
 30
0.0
 11
-39.174622560700001
 21
-491.53692129629991
 31
0.0
 12
-43.674622560699987
 22
-491.53692129629991
 32
0.0
 13
-41.424622560699987
 23
-489.28692129629991
 33
0.0
  0
LINE
  5
57C
  8
0
 62
     0
 10
-41.424622560699987
 20
-661.53692129629985
 30
0.0
 11
-41.424622560699987
 21
-656.53692129629985
 31
0.0
  0
SOLID
  5
57D
  8
0
 62
     0
 10
-41.424622560699987
 20
-661.53692129629985
 30
0.0
 11
-43.674622560699987
 21
-652.53692129629985
 31
0.0
 12
-39.174622560700001
 22
-652.53692129629985
 32
0.0
 13
-41.424622560699987
 23
-654.78692129629985
 33
0.0
  0
ENDBLK
  5
57E
  8
0
  0
BLOCK
  8
0
  2
*D45
 70
     1
 10
0.0
 20
0.0
 30
0.0
  3
*D45
  1

  0
TEXT
  5
589
  8
0
 62
     0
 10
0.206784997
 20
-248.37694012950001
 30
0.0
 40
9.8954164504999991
  1
180
 50
90.0
  0
LINE
  5
58A
  8
0
 62
     0
 10
-28.652944960599999
 20
-329.6456903202
 30
0.0
 11
3.9530349589
 21
-329.6456903202
 31
0.0
  0
LINE
  5
58B
  8
0
 62
     0
 10
-28.652944960599999
 20
-149.6456903202
 30
0.0
 11
3.9530349589
 21
-149.6456903202
 31
0.0
  0
LINE
  5
58C
  8
0
 62
     0
 10
2.9530349589
 20
-329.6456903202
 30
0.0
 11
2.9530349589
 21
-225.0936073048
 31
0.0
  0
LINE
  5
58D
  8
0
 62
     0
 10
2.9530349589
 20
-329.6456903202
 30
0.0
 11
2.9530349589
 21
-254.1977733356
 31
0.0
  0
LINE
  5
58E
  8
0
 62
     0
 10
2.9530349589
 20
-149.6456903202
 30
0.0
 11
2.9530349589
 21
-225.0936073048
 31
0.0
  0
LINE
  5
58F
  8
0
 62
     0
 10
2.9530349589
 20
-149.6456903202
 30
0.0
 11
2.9530349589
 21
-254.1977733356
 31
0.0
  0
LINE
  5
590
  8
0
 62
     0
 10
2.9530349589
 20
-149.6456903202
 30
0.0
 11
2.9530349589
 21
-154.6456903202
 31
0.0
  0
SOLID
  5
591
  8
0
 62
     0
 10
2.9530349589
 20
-149.6456903202
 30
0.0
 11
5.2030349589
 21
-158.6456903202
 31
0.0
 12
0.7030349589
 22
-158.6456903202
 32
0.0
 13
2.9530349589
 23
-156.3956903202
 33
0.0
  0
LINE
  5
592
  8
0
 62
     0
 10
2.9530349589
 20
-329.6456903202
 30
0.0
 11
2.9530349589
 21
-324.6456903202
 31
0.0
  0
SOLID
  5
593
  8
0
 62
     0
 10
2.9530349589
 20
-329.6456903202
 30
0.0
 11
0.7030349589
 21
-320.6456903202
 31
0.0
 12
5.2030349589
 22
-320.6456903202
 32
0.0
 13
2.9530349589
 23
-322.8956903202
 33
0.0
  0
ENDBLK
  5
594
  8
0
  0
BLOCK
  8
0
  2
*D46
 70
     1
 10
0.0
 20
0.0
 30
0.0
  3
*D46
  1

  0
TEXT
  5
59C
  8
0
 62
     0
 10
-470.63194563510001
 20
-686.79067261249986
 30
0.0
 40
9.8954164504999991
  1
75
  0
LINE
  5
59D
  8
0
 62
     0
 10
-502.3111124289
 20
-645.04061520129994
 30
0.0
 11
-502.3111124289
 21
-690.53692257429987
 31
0.0
  0
LINE
  5
59E
  8
0
 62
     0
 10
-427.3111124289
 20
-645.04061520129994
 30
0.0
 11
-427.3111124289
 21
-690.53692257429987
 31
0.0
  0
LINE
  5
59F
  8
0
 62
     0
 10
-502.3111124289
 20
-689.53692257429987
 30
0.0
 11
-453.16944601649999
 21
-689.53692257429987
 31
0.0
  0
LINE
  5
5A0
  8
0
 62
     0
 10
-502.3111124289
 20
-689.53692257429987
 30
0.0
 11
-476.4527788412999
 21
-689.53692257429987
 31
0.0
  0
LINE
  5
5A1
  8
0
 62
     0
 10
-427.3111124289
 20
-689.53692257429987
 30
0.0
 11
-453.16944601649999
 21
-689.53692257429987
 31
0.0
  0
LINE
  5
5A2
  8
0
 62
     0
 10
-427.3111124289
 20
-689.53692257429987
 30
0.0
 11
-476.4527788412999
 21
-689.53692257429987
 31
0.0
  0
LINE
  5
5A3
  8
0
 62
     0
 10
-427.3111124289
 20
-689.53692257429987
 30
0.0
 11
-432.3111124289
 21
-689.53692257429987
 31
0.0
  0
SOLID
  5
5A4
  8
0
 62
     0
 10
-427.3111124289
 20
-689.53692257429987
 30
0.0
 11
-436.3111124289
 21
-691.78692257429987
 31
0.0
 12
-436.3111124289
 22
-687.28692257429987
 32
0.0
 13
-434.0611124289
 23
-689.53692257429987
 33
0.0
  0
LINE
  5
5A5
  8
0
 62
     0
 10
-502.3111124289
 20
-689.53692257429987
 30
0.0
 11
-497.31111242889989
 21
-689.53692257429987
 31
0.0
  0
SOLID
  5
5A6
  8
0
 62
     0
 10
-502.3111124289
 20
-689.53692257429987
 30
0.0
 11
-493.31111242889989
 21
-687.28692257429987
 31
0.0
 12
-493.31111242889989
 22
-691.78692257429987
 32
0.0
 13
-495.56111242889989
 23
-689.53692257429987
 33
0.0
  0
ENDBLK
  5
5A7
  8
0
  0
BLOCK
  8
0
  2
CLUMP4
 70
     0
 10
0.0
 20
0.0
 30
0.0
  3
CLUMP4
  1

  0
LINE
  5
5B7
  8
É}ÿg
 10
193.00600132369999
 20
-715.99899814440005
 30
0.0
 11
193.00600132369999
 21
-700.99899814440005
 31
0.0
  0
LINE
  5
5B8
  8
É}ÿg
 10
16.006001323700001
 20
-715.99899814440005
 30
0.0
 11
16.006001323700001
 21
-700.99899814440005
 31
0.0
  0
LINE
  5
5B9
  8
É}ÿg
 10
43.006001323699991
 20
-715.99899814440005
 30
0.0
 11
43.006001323699991
 21
-700.99899814440005
 31
0.0
  0
LINE
  5
5BA
  8
É}ÿg
 10
358.00600132369999
 20
-715.99899814440005
 30
0.0
 11
358.00600132369999
 21
-700.99899814440005
 31
0.0
  0
LINE
  5
5BB
  8
É}ÿg
 10
331.00600132369999
 20
-715.99899814440005
 30
0.0
 11
331.00600132369999
 21
-700.99899814440005
 31
0.0
  0
LINE
  5
5BC
  8
É}ÿg
 10
451.0060013237001
 20
-700.99899814440005
 30
0.0
 11
16.006001323700001
 21
-700.99899814440005
 31
0.0
  0
ENDBLK
  5
5BD
  8
0
  0
BLOCK
  8
0
  2
CLUMP5
 70
     0
 10
0.0
 20
0.0
 30
0.0
  3
CLUMP5
  1

  0
LINE
  5
5C1
  8
É}ÿg
 10
193.00600132369999
 20
-730.99899814440005
 30
0.0
 11
193.00600132369999
 21
-715.99899814440005
 31
0.0
  0
LINE
  5
5C2
  8
É}ÿg
 10
16.006001323700001
 20
-730.99899814440005
 30
0.0
 11
16.006001323700001
 21
-715.99899814440005
 31
0.0
  0
LINE
  5
5C3
  8
É}ÿg
 10
43.006001323699991
 20
-730.99899814440005
 30
0.0
 11
43.006001323699991
 21
-715.99899814440005
 31
0.0
  0
LINE
  5
5C4
  8
É}ÿg
 10
358.00600132369999
 20
-730.99899814440005
 30
0.0
 11
358.00600132369999
 21
-715.99899814440005
 31
0.0
  0
LINE
  5
5C5
  8
É}ÿg
 10
331.00600132369999
 20
-730.99899814440005
 30
0.0
 11
331.00600132369999
 21
-715.99899814440005
 31
0.0
  0
LINE
  5
5C6
  8
É}ÿg
 10
451.0060013237001
 20
-715.99899814440005
 30
0.0
 11
16.006001323700001
 21
-715.99899814440005
 31
0.0
  0
ENDBLK
  5
5C7
  8
0
  0
BLOCK
  8
0
  2
CLUMP6
 70
     0
 10
0.0
 20
0.0
 30
0.0
  3
CLUMP6
  1

  0
LINE
  5
5CB
  8
É}ÿg
 10
193.00600132369999
 20
-700.99899814440005
 30
0.0
 11
193.00600132369999
 21
-685.99899814440005
 31
0.0
  0
LINE
  5
5CC
  8
É}ÿg
 10
16.006001323700001
 20
-700.99899814440005
 30
0.0
 11
16.006001323700001
 21
-685.99899814440005
 31
0.0
  0
LINE
  5
5CD
  8
É}ÿg
 10
43.006001323699991
 20
-700.99899814440005
 30
0.0
 11
43.006001323699991
 21
-685.99899814440005
 31
0.0
  0
LINE
  5
5CE
  8
É}ÿg
 10
358.00600132369999
 20
-700.99899814440005
 30
0.0
 11
358.00600132369999
 21
-685.99899814440005
 31
0.0
  0
LINE
  5
5CF
  8
É}ÿg
 10
331.00600132369999
 20
-700.99899814440005
 30
0.0
 11
331.00600132369999
 21
-685.99899814440005
 31
0.0
  0
LINE
  5
5D0
  8
É}ÿg
 10
451.0060013237001
 20
-685.99899814440005
 30
0.0
 11
16.006001323700001
 21
-685.99899814440005
 31
0.0
  0
ENDBLK
  5
5D1
  8
0
  0
BLOCK
  8
0
  2
CLUMP7
 70
     0
 10
0.0
 20
0.0
 30
0.0
  3
CLUMP7
  1

  0
LINE
  5
5DB
  8
É}ÿg
 10
190.96975897029989
 20
-837.26897924369985
 30
0.0
 11
193.96975897029989
 21
-832.76897924369985
 31
0.0
  0
LINE
  5
5DC
  8
É}ÿg
 10
146.9879407885
 20
-832.76897924369985
 30
0.0
 11
146.9879407885
 21
-838.76897924369985
 31
0.0
  0
LINE
  5
5DD
  8
É}ÿg
 10
218.16902972080001
 20
-843.26897924369985
 30
0.0
 11
227.6222069152
 21
-843.26897924369985
 31
0.0
  0
LINE
  5
5DE
  8
É}ÿg
 10
166.96975897030001
 20
-853.76897924369985
 30
0.0
 11
174.46975897029989
 21
-853.76897924369985
 31
0.0
  0
LINE
  5
5DF
  8
É}ÿg
 10
166.96975897030001
 20
-839.73531004610004
 30
0.0
 11
178.96975897030001
 21
-839.73531004610004
 31
0.0
  0
INSERT
  5
5E0
  8
0
  6
CONTINUOUS
  2
*U91
 10
0.0
 20
0.0
 30
0.0
  0
LINE
  5
5E1
  8
É}ÿg
 62
     5
 10
241.00600132369999
 20
-64.998998144399991
 30
0.0
 11
241.00600132369999
 21
-19.998998144400002
 31
0.0
  0
LINE
  5
5E2
  8
É}ÿg
 62
     5
 10
391.00600132369999
 20
-64.998998144399991
 30
0.0
 11
391.00600132369999
 21
-19.998998144400002
 31
0.0
  0
LINE
  5
5E3
  8
É}ÿg
 62
     5
 10
193.00600132369999
 20
-64.998998144399991
 30
0.0
 11
193.00600132369999
 21
-19.998998144400002
 31
0.0
  0
LINE
  5
5E4
  8
É}ÿg
 62
     5
 10
172.7281451655
 20
-48.706622891400002
 30
0.0
 11
187.57814516549999
 21
-48.706622891400002
 31
0.0
  0
LINE
  5
5E5
  8
É}ÿg
 62
     5
 10
180.15314516550001
 20
-50.696145645200012
 30
0.0
 11
187.57814516549999
 21
-63.556622891400004
 31
0.0
  0
LINE
  5
5E6
  8
É}ÿg
 62
     5
 10
169.00600132369999
 20
-64.998998144399991
 30
0.0
 11
169.00600132369999
 21
-19.998998144400002
 31
0.0
  0
LINE
  5
5E7
  8
É}ÿg
 62
     5
 10
421.00600132369999
 20
-64.998998144399991
 30
0.0
 11
421.00600132369999
 21
-19.998998144400002
 31
0.0
  0
LINE
  5
5E8
  8
É}ÿg
 62
     5
 10
169.00600132369999
 20
-34.998998144399998
 30
0.0
 11
451.0060013237001
 21
-34.998998144399998
 31
0.0
  0
LINE
  5
5E9
  8
É}ÿg
 62
     5
 10
169.00600132369999
 20
-49.998998144399991
 30
0.0
 11
451.0060013237001
 21
-49.998998144399991
 31
0.0
  0
LINE
  5
5EA
  8
É}ÿg
 62
     5
 10
169.00600132369999
 20
-64.998998144399991
 30
0.0
 11
451.0060013237001
 21
-64.998998144399991
 31
0.0
  0
INSERT
  5
5EB
  8
0
  6
CONTINUOUS
  2
*U92
 10
0.0
 20
0.0
 30
0.0
  0
LINE
  5
5EC
  8
É}ÿg
 62
     5
 10
-748.99399867629995
 20
-859.99899814440005
 30
0.0
 11
-748.99399867629995
 21
-19.998998144400002
 31
0.0
  0
LINE
  5
5ED
  8
É}ÿg
 62
     5
 10
-748.99399867629995
 20
-859.99899814440005
 30
0.0
 11
451.0060013237001
 21
-859.99899814440005
 31
0.0
  0
LINE
  5
5EE
  8
É}ÿg
 62
     5
 10
451.0060013237001
 20
-19.998998144400002
 30
0.0
 11
-748.99399867629995
 21
-19.998998144400002
 31
0.0
  0
LINE
  5
5EF
  8
É}ÿg
 62
     5
 10
451.0060013237001
 20
-859.99899814440005
 30
0.0
 11
451.0060013237001
 21
-19.998998144400002
 31
0.0
  0
LINE
  5
5F0
  8
É}ÿg
 10
166.96975897030001
 20
-840.70164084860005
 30
0.0
 11
166.96975897030001
 21
-839.73531004610004
 31
0.0
  0
LINE
  5
5F1
  8
É}ÿg
 10
130.03462935389999
 20
-838.76897924369985
 30
0.0
 11
130.03462935389999
 21
-843.26897924369985
 31
0.0
  0
LINE
  5
5F2
  8
É}ÿg
 62
     5
 10
180.15314516550001
 20
-35.846145645199996
 30
0.0
 11
187.57814516549999
 21
-48.706622891400002
 31
0.0
  0
LINE
  5
5F3
  8
É}ÿg
 62
     5
 10
180.15314516550001
 20
-50.696145645200012
 30
0.0
 11
172.7281451655
 21
-63.556622891400004
 31
0.0
  0
INSERT
  5
5F4
  8
0
  6
CONTINUOUS
  2
*U93
 10
0.0
 20
0.0
 30
0.0
  0
LINE
  5
5F5
  8
É}ÿg
  6
DOT
 10
-763.93399867629989
 20
-872.68899814439987
 30
0.0
 11
-763.93399867629989
 21
-7.3089981444000003
 31
0.0
  0
LINE
  5
5F6
  8
É}ÿg
  6
DOT
 10
465.94600132369999
 20
-872.68899814439987
 30
0.0
 11
465.94600132369999
 21
-7.3089981444000003
 31
0.0
  0
LINE
  5
5F7
  8
É}ÿg
  6
DOT
 10
-763.93399867629989
 20
-872.68899814439987
 30
0.0
 11
465.94600132369999
 21
-872.68899814439987
 31
0.0
  0
LINE
  5
5F8
  8
É}ÿg
 10
140.9879407885
 20
-847.76897924369985
 30
0.0
 11
140.9879407885
 21
-843.26897924369985
 31
0.0
  0
LINE
  5
5F9
  8
É}ÿg
  6
DOT
 10
465.94600132369999
 20
-7.3089981444000003
 30
0.0
 11
-763.93399867629989
 21
-7.3089981444000003
 31
0.0
  0
LINE
  5
5FA
  8
É}ÿg
 10
133.4879407885
 20
-843.26897924369985
 30
0.0
 11
133.4879407885
 21
-847.76897924369985
 31
0.0
  0
LINE
  5
5FB
  8
É}ÿg
 10
154.4879407885
 20
-837.26897924369985
 30
0.0
 11
158.9879407885
 21
-832.76897924369985
 31
0.0
  0
LINE
  5
5FC
  8
É}ÿg
 10
210.40620691519999
 20
-845.66897924370005
 30
0.0
 11
209.70220691520001
 21
-843.26897924369985
 31
0.0
  0
LINE
  5
5FD
  8
É}ÿg
 10
140.9879407885
 20
-838.76897924369985
 30
0.0
 11
140.9879407885
 21
-837.26897924369985
 31
0.0
  0
LINE
  5
5FE
  8
É}ÿg
 10
187.55791702659999
 20
-847.31637287059993
 30
0.0
 11
187.02361084719999
 21
-847.83950730319998
 31
0.0
  0
LINE
  5
5FF
  8
É}ÿg
 10
190.96975897029989
 20
-837.26897924369985
 30
0.0
 11
193.96975897029989
 21
-832.76897924369985
 31
0.0
  0
LINE
  5
600
  8
É}ÿg
 10
227.6222069152
 20
-845.66897924370005
 30
0.0
 11
227.6222069152
 21
-851.0689792436998
 31
0.0
  0
LINE
  5
601
  8
É}ÿg
 10
193.96975897029989
 20
-849.26897924369985
 30
0.0
 11
193.96975897029989
 21
-853.76897924369985
 31
0.0
  0
LINE
  5
602
  8
É}ÿg
 10
216.61509998330001
 20
-837.86897924369987
 30
0.0
 11
227.6222069152
 21
-837.86897924369987
 31
0.0
  0
LINE
  5
603
  8
É}ÿg
 10
216.61509998330001
 20
-837.86897924369987
 30
0.0
 11
216.1759172326
 21
-836.3427925722998
 31
0.0
  0
LINE
  5
604
  8
É}ÿg
 10
193.96975897029989
 20
-832.76897924369985
 30
0.0
 11
166.96975897030001
 21
-832.76897924369985
 31
0.0
  0
INSERT
  5
605
  8
0
  6
CONTINUOUS
  2
*U94
 10
0.0
 20
0.0
 30
0.0
  0
LINE
  5
606
  8
É}ÿg
 10
213.22220691519999
 20
-855.26897924369996
 30
0.0
 11
211.99020691519999
 21
-851.0689792436998
 31
0.0
  0
LINE
  5
607
  8
É}ÿg
 10
142.4879407885
 20
-849.26897924369985
 30
0.0
 11
133.4879407885
 21
-849.26897924369985
 31
0.0
  0
LINE
  5
608
  8
É}ÿg
 10
166.96975897030001
 20
-838.16897924369994
 30
0.0
 11
181.96975897030001
 21
-838.16897924369994
 31
0.0
  0
LINE
  5
609
  8
É}ÿg
 10
207.66375385870001
 20
-773.89899814440003
 30
0.0
 11
222.06375385870001
 21
-770.2989981444
 31
0.0
  0
CIRCLE
  5
60A
  8
É}ÿg
 10
191.20600132370001
 20
-777.49899814440005
 30
0.0
 40
7.2000000000000002
  0
INSERT
  5
60B
  8
0
  6
CONTINUOUS
  2
*U95
 10
0.0
 20
0.0
 30
0.0
  0
LINE
  5
60C
  8
É}ÿg
 10
140.9879407885
 20
-843.26897924369985
 30
0.0
 11
146.9879407885
 21
-843.26897924369985
 31
0.0
  0
LINE
  5
60D
  8
É}ÿg
 10
200.6222069152
 20
-843.26897924369985
 30
0.0
 11
209.70220691520001
 21
-843.26897924369985
 31
0.0
  0
LINE
  5
60E
  8
É}ÿg
 10
158.9879407885
 20
-838.76897924369985
 30
0.0
 11
154.4879407885
 21
-838.76897924369985
 31
0.0
  0
LINE
  5
60F
  8
É}ÿg
 10
154.4879407885
 20
-838.76897924369985
 30
0.0
 11
154.4879407885
 21
-837.26897924369985
 31
0.0
  0
LINE
  5
610
  8
É}ÿg
 10
200.6222069152
 20
-837.86897924369987
 30
0.0
 11
208.11820691520001
 21
-837.86897924369987
 31
0.0
  0
LINE
  5
611
  8
É}ÿg
 10
216.1759172326
 20
-836.3427925722998
 30
0.0
 11
218.6222069152
 21
-832.76897924369985
 31
0.0
  0
LINE
  5
612
  8
É}ÿg
 10
166.96975897030001
 20
-853.76897924369985
 30
0.0
 11
166.96975897030001
 21
-849.26897924369985
 31
0.0
  0
LINE
  5
613
  8
É}ÿg
 10
241.00600132369999
 20
-760.99899814440005
 30
0.0
 11
241.00600132369999
 21
-859.99899814440005
 31
0.0
  0
INSERT
  5
614
  8
0
  6
CONTINUOUS
  2
*U96
 10
0.0
 20
0.0
 30
0.0
  0
INSERT
  5
615
  8
0
  6
CONTINUOUS
  2
*U97
 10
0.0
 20
0.0
 30
0.0
  0
INSERT
  5
616
  8
0
  6
CONTINUOUS
  2
*U98
 10
0.0
 20
0.0
 30
0.0
  0
LINE
  5
617
  8
É}ÿg
 62
     5
 10
172.7281451655
 20
-63.556622891400004
 30
0.0
 11
187.57814516549999
 21
-63.556622891400004
 31
0.0
  0
LINE
  5
618
  8
É}ÿg
 10
130.03462935389999
 20
-843.26897924369985
 30
0.0
 11
133.03462935389999
 21
-843.26897924369985
 31
0.0
  0
ARC
  5
619
  8
É}ÿg
 10
174.46975897029989
 20
-837.26897924369985
 30
0.0
 40
16.5
 50
322.48761197969998
 51
0.0
  0
LINE
  5
61A
  8
É}ÿg
 10
133.4879407885
 20
-853.76897924369985
 30
0.0
 11
145.4879407885
 21
-853.76897924369985
 31
0.0
  0
LINE
  5
61B
  8
É}ÿg
 10
200.6222069152
 20
-851.0689792436998
 30
0.0
 11
211.99020691519999
 21
-851.0689792436998
 31
0.0
  0
ARC
  5
61C
  8
É}ÿg
 10
142.4879407885
 20
-844.76897924369996
 30
0.0
 40
4.5
 50
270.0
 51
0.0
  0
LINE
  5
61D
  8
É}ÿg
 10
200.6222069152
 20
-845.66897924370005
 30
0.0
 11
200.6222069152
 21
-851.0689792436998
 31
0.0
  0
LINE
  5
61E
  8
É}ÿg
 10
133.4879407885
 20
-847.76897924369985
 30
0.0
 11
140.9879407885
 21
-847.76897924369985
 31
0.0
  0
LINE
  5
61F
  8
É}ÿg
 10
180.5786964454
 20
-843.32619195899997
 30
0.0
 11
179.85690902639999
 21
-844.12340704070004
 31
0.0
  0
LINE
  5
620
  8
É}ÿg
 10
221.6222069152
 20
-855.26897924369996
 30
0.0
 11
213.22220691519999
 21
-855.26897924369996
 31
0.0
  0
LINE
  5
621
  8
É}ÿg
 10
146.9879407885
 20
-843.26897924369985
 30
0.0
 11
146.9879407885
 21
-844.76897924369996
 31
0.0
  0
LINE
  5
622
  8
É}ÿg
 10
451.0060013237001
 20
-760.99899814440005
 30
0.0
 11
16.006001323700001
 21
-760.99899814440005
 31
0.0
  0
LINE
  5
623
  8
É}ÿg
 10
222.06375385870001
 20
-770.2989981444
 30
0.0
 11
222.06375385870001
 21
-784.69899814439987
 31
0.0
  0
LINE
  5
624
  8
É}ÿg
 62
     5
 10
180.15314516550001
 20
-35.846145645199996
 30
0.0
 11
172.7281451655
 21
-48.706622891400002
 31
0.0
  0
LINE
  5
625
  8
É}ÿg
 10
158.9879407885
 20
-832.76897924369985
 30
0.0
 11
146.9879407885
 21
-832.76897924369985
 31
0.0
  0
LINE
  5
626
  8
É}ÿg
 10
154.4879407885
 20
-844.76897924369996
 30
0.0
 11
154.4879407885
 21
-843.26897924369985
 31
0.0
  0
LINE
  5
627
  8
É}ÿg
 10
200.6222069152
 20
-837.86897924369987
 30
0.0
 11
200.6222069152
 21
-843.26897924369985
 31
0.0
  0
LINE
  5
628
  8
É}ÿg
 10
146.9879407885
 20
-838.76897924369985
 30
0.0
 11
140.9879407885
 21
-838.76897924369985
 31
0.0
  0
LINE
  5
629
  8
É}ÿg
 10
145.4879407885
 20
-832.76897924369985
 30
0.0
 11
133.4879407885
 21
-832.76897924369985
 31
0.0
  0
LINE
  5
62A
  8
É}ÿg
 10
140.9879407885
 20
-837.26897924369985
 30
0.0
 11
145.4879407885
 21
-832.76897924369985
 31
0.0
  0
LINE
  5
62B
  8
É}ÿg
 10
133.4879407885
 20
-832.76897924369985
 30
0.0
 11
133.4879407885
 21
-838.76897924369985
 31
0.0
  0
LINE
  5
62C
  8
É}ÿg
 10
220.41359489710001
 20
-851.0689792436998
 30
0.0
 11
227.6222069152
 21
-851.0689792436998
 31
0.0
  0
LINE
  5
62D
  8
É}ÿg
 10
208.11820691520001
 20
-837.86897924369987
 30
0.0
 11
206.6222069152
 21
-832.76897924369985
 31
0.0
  0
LINE
  5
62E
  8
É}ÿg
 10
200.6222069152
 20
-845.66897924370005
 30
0.0
 11
210.40620691519999
 21
-845.66897924370005
 31
0.0
  0
LINE
  5
62F
  8
É}ÿg
 10
218.8596651597
 20
-845.66897924370005
 30
0.0
 11
218.16902972080001
 21
-843.26897924369985
 31
0.0
  0
ARC
  5
630
  8
É}ÿg
 10
170.5697589703
 20
-837.86897924369987
 30
0.0
 40
11.4
 50
270.0
 51
298.08590481520002
  0
INSERT
  5
631
  8
0
  6
CONTINUOUS
  2
*U99
 10
0.0
 20
0.0
 30
0.0
  0
LINE
  5
632
  8
É}ÿg
 10
23.506001323700001
 20
-777.49899814440005
 30
0.0
 11
83.506001323700005
 21
-777.49899814440005
 31
0.0
  0
LINE
  5
633
  8
É}ÿg
 10
91.006001323700005
 20
-760.99899814440005
 30
0.0
 11
91.006001323700005
 21
-793.99899814440005
 31
0.0
  0
LINE
  5
634
  8
É}ÿg
 10
16.006001323700001
 20
-793.99899814440005
 30
0.0
 11
451.0060013237001
 21
-793.99899814440005
 31
0.0
  0
LINE
  5
635
  8
É}ÿg
 10
166.00600132369999
 20
-760.99899814440005
 30
0.0
 11
166.00600132369999
 21
-793.99899814440005
 31
0.0
  0
LINE
  5
636
  8
É}ÿg
  6
BORDER
 10
191.20600132370001
 20
-766.69899814439987
 30
0.0
 11
191.20600132370001
 21
-788.2989981444
 31
0.0
  0
LINE
  5
637
  8
É}ÿg
  6
BORDER
 10
191.20600132370001
 20
-766.69899814439987
 30
0.0
 11
191.20600132370001
 21
-788.2989981444
 31
0.0
  0
LINE
  5
638
  8
É}ÿg
 10
227.6222069152
 20
-837.86897924369987
 30
0.0
 11
227.6222069152
 21
-843.26897924369985
 31
0.0
  0
LINE
  5
639
  8
É}ÿg
 10
98.506001323700005
 20
-777.49899814440005
 30
0.0
 11
158.50600132369999
 21
-777.49899814440005
 31
0.0
  0
INSERT
  5
63A
  8
0
  6
CONTINUOUS
  2
*U100
 10
0.0
 20
0.0
 30
0.0
  0
CIRCLE
  5
63B
  8
É}ÿg
 10
191.20600132370001
 20
-777.49899814440005
 30
0.0
 40
7.2000000000000002
  0
LINE
  5
63C
  8
É}ÿg
 10
207.66375385870001
 20
-773.89899814440003
 30
0.0
 11
222.06375385870001
 21
-770.2989981444
 31
0.0
  0
INSERT
  5
63D
  8
0
  6
CONTINUOUS
  2
*U101
 10
0.0
 20
0.0
 30
0.0
  0
CIRCLE
  5
63E
  8
É}ÿg
 10
191.20600132370001
 20
-777.49899814440005
 30
0.0
 40
3.6000000000000001
  0
LINE
  5
63F
  8
É}ÿg
 10
221.6222069152
 20
-855.26897924369996
 30
0.0
 11
220.41359489710001
 21
-851.0689792436998
 31
0.0
  0
LINE
  5
640
  8
É}ÿg
 10
218.8596651597
 20
-845.66897924370005
 30
0.0
 11
227.6222069152
 21
-845.66897924370005
 31
0.0
  0
LINE
  5
641
  8
É}ÿg
 10
166.96975897030001
 20
-849.26897924369985
 30
0.0
 11
170.5697589703
 21
-849.26897924369985
 31
0.0
  0
LINE
  5
642
  8
É}ÿg
 10
206.6222069152
 20
-832.76897924369985
 30
0.0
 11
218.6222069152
 21
-832.76897924369985
 31
0.0
  0
LINE
  5
643
  8
É}ÿg
 10
133.4879407885
 20
-838.76897924369985
 30
0.0
 11
130.03462935389999
 21
-838.76897924369985
 31
0.0
  0
LINE
  5
644
  8
É}ÿg
 10
166.96975897030001
 20
-849.26897924369985
 30
0.0
 11
166.96975897030001
 21
-853.76897924369985
 31
0.0
  0
LINE
  5
645
  8
É}ÿg
 10
133.4879407885
 20
-843.26897924369985
 30
0.0
 11
133.03462935389999
 21
-843.26897924369985
 31
0.0
  0
LINE
  5
646
  8
É}ÿg
 10
133.4879407885
 20
-849.26897924369985
 30
0.0
 11
133.4879407885
 21
-853.76897924369985
 31
0.0
  0
ARC
  5
647
  8
É}ÿg
 10
170.5697589703
 20
-837.86897924369987
 30
0.0
 40
11.4
 50
331.39928138329998
 51
358.49204224580001
  0
LINE
  5
648
  8
É}ÿg
 10
154.4879407885
 20
-843.26897924369985
 30
0.0
 11
158.9879407885
 21
-843.26897924369985
 31
0.0
  0
ARC
  5
649
  8
É}ÿg
 10
174.46975897029989
 20
-837.26897924369985
 30
0.0
 40
16.5
 50
270.0
 51
302.54495885400001
  0
LINE
  5
64A
  8
É}ÿg
 10
207.66375385870001
 20
-781.09899814439996
 30
0.0
 11
222.06375385870001
 21
-784.69899814439987
 31
0.0
  0
LINE
  5
64B
  8
É}ÿg
 10
207.66375385870001
 20
-773.89899814440003
 30
0.0
 11
207.66375385870001
 21
-781.09899814439996
 31
0.0
  0
LINE
  5
64C
  8
É}ÿg
 10
222.06375385870001
 20
-770.2989981444
 30
0.0
 11
222.06375385870001
 21
-784.69899814439987
 31
0.0
  0
LINE
  5
64D
  8
É}ÿg
 10
178.96975897030001
 20
-839.73531004610004
 30
0.0
 11
177.27270269549999
 21
-841.43236632100002
 31
0.0
  0
LINE
  5
64E
  8
É}ÿg
  6
BORDER
 10
180.4060013237
 20
-777.49899814440005
 30
0.0
 11
226.60600132370001
 21
-777.49899814440005
 31
0.0
  0
CIRCLE
  5
64F
  8
É}ÿg
 10
191.20600132370001
 20
-777.49899814440005
 30
0.0
 40
3.6000000000000001
  0
POLYLINE
  8
É}ÿg
  5
7E4
  66
     1
 10
0.000000
 20
0.000000
 30
0.000000
  70
     8
  0
VERTEX
  8
É}ÿg
  5
7E5
 10
187.024
 20
-847.840
 30
0.000000
  70
    32
  0
VERTEX
  8
É}ÿg
  5
7E6
 10
187.076
 20
-847.854
 30
0.000000
  70
    32
  0
VERTEX
  8
É}ÿg
  5
7E7
 10
187.129
 20
-847.869
 30
0.000000
  70
    32
  0
VERTEX
  8
É}ÿg
  5
7E8
 10
187.181
 20
-847.884
 30
0.000000
  70
    32
  0
VERTEX
  8
É}ÿg
  5
7E9
 10
187.234
 20
-847.898
 30
0.000000
  70
    32
  0
VERTEX
  8
É}ÿg
  5
7EA
 10
187.286
 20
-847.913
 30
0.000000
  70
    32
  0
VERTEX
  8
É}ÿg
  5
7EB
 10
187.339
 20
-847.927
 30
0.000000
  70
    32
  0
VERTEX
  8
É}ÿg
  5
7EC
 10
187.392
 20
-847.942
 30
0.000000
  70
    32
  0
VERTEX
  8
É}ÿg
  5
7ED
 10
187.445
 20
-847.956
 30
0.000000
  70
    32
  0
VERTEX
  8
É}ÿg
  5
7EE
 10
187.498
 20
-847.970
 30
0.000000
  70
    32
  0
VERTEX
  8
É}ÿg
  5
7EF
 10
187.550
 20
-847.984
 30
0.000000
  70
    32
  0
VERTEX
  8
É}ÿg
  5
7F0
 10
187.603
 20
-847.998
 30
0.000000
  70
    32
  0
VERTEX
  8
É}ÿg
  5
7F1
 10
187.656
 20
-848.012
 30
0.000000
  70
    32
  0
VERTEX
  8
É}ÿg
  5
7F2
 10
187.710
 20
-848.026
 30
0.000000
  70
    32
  0
VERTEX
  8
É}ÿg
  5
7F3
 10
187.763
 20
-848.040
 30
0.000000
  70
    32
  0
VERTEX
  8
É}ÿg
  5
7F4
 10
187.816
 20
-848.054
 30
0.000000
  70
    32
  0
VERTEX
  8
É}ÿg
  5
7F5
 10
187.869
 20
-848.067
 30
0.000000
  70
    32
  0
VERTEX
  8
É}ÿg
  5
7F6
 10
187.922
 20
-848.081
 30
0.000000
  70
    32
  0
VERTEX
  8
É}ÿg
  5
7F7
 10
187.976
 20
-848.095
 30
0.000000
  70
    32
  0
VERTEX
  8
É}ÿg
  5
7F8
 10
188.029
 20
-848.108
 30
0.000000
  70
    32
  0
VERTEX
  8
É}ÿg
  5
7F9
 10
188.082
 20
-848.121
 30
0.000000
  70
    32
  0
VERTEX
  8
É}ÿg
  5
7FA
 10
188.136
 20
-848.135
 30
0.000000
  70
    32
  0
VERTEX
  8
É}ÿg
  5
7FB
 10
188.189
 20
-848.148
 30
0.000000
  70
    32
  0
VERTEX
  8
É}ÿg
  5
7FC
 10
188.243
 20
-848.161
 30
0.000000
  70
    32
  0
VERTEX
  8
É}ÿg
  5
7FD
 10
188.296
 20
-848.174
 30
0.000000
  70
    32
  0
VERTEX
  8
É}ÿg
  5
7FE
 10
188.350
 20
-848.187
 30
0.000000
  70
    32
  0
VERTEX
  8
É}ÿg
  5
7FF
 10
188.404
 20
-848.200
 30
0.000000
  70
    32
  0
VERTEX
  8
É}ÿg
  5
800
 10
188.457
 20
-848.213
 30
0.000000
  70
    32
  0
VERTEX
  8
É}ÿg
  5
801
 10
188.511
 20
-848.226
 30
0.000000
  70
    32
  0
VERTEX
  8
É}ÿg
  5
802
 10
188.565
 20
-848.238
 30
0.000000
  70
    32
  0
VERTEX
  8
É}ÿg
  5
803
 10
188.619
 20
-848.251
 30
0.000000
  70
    32
  0
VERTEX
  8
É}ÿg
  5
804
 10
188.672
 20
-848.264
 30
0.000000
  70
    32
  0
VERTEX
  8
É}ÿg
  5
805
 10
188.726
 20
-848.276
 30
0.000000
  70
    32
  0
VERTEX
  8
É}ÿg
  5
806
 10
188.780
 20
-848.289
 30
0.000000
  70
    32
  0
VERTEX
  8
É}ÿg
  5
807
 10
188.834
 20
-848.301
 30
0.000000
  70
    32
  0
VERTEX
  8
É}ÿg
  5
808
 10
188.888
 20
-848.313
 30
0.000000
  70
    32
  0
VERTEX
  8
É}ÿg
  5
809
 10
188.942
 20
-848.326
 30
0.000000
  70
    32
  0
VERTEX
  8
É}ÿg
  5
80A
 10
188.996
 20
-848.338
 30
0.000000
  70
    32
  0
VERTEX
  8
É}ÿg
  5
80B
 10
189.051
 20
-848.350
 30
0.000000
  70
    32
  0
VERTEX
  8
É}ÿg
  5
80C
 10
189.105
 20
-848.362
 30
0.000000
  70
    32
  0
VERTEX
  8
É}ÿg
  5
80D
 10
189.159
 20
-848.374
 30
0.000000
  70
    32
  0
VERTEX
  8
É}ÿg
  5
80E
 10
189.213
 20
-848.386
 30
0.000000
  70
    32
  0
VERTEX
  8
É}ÿg
  5
80F
 10
189.268
 20
-848.398
 30
0.000000
  70
    32
  0
VERTEX
  8
É}ÿg
  5
810
 10
189.322
 20
-848.410
 30
0.000000
  70
    32
  0
VERTEX
  8
É}ÿg
  5
811
 10
189.376
 20
-848.422
 30
0.000000
  70
    32
  0
VERTEX
  8
É}ÿg
  5
812
 10
189.431
 20
-848.433
 30
0.000000
  70
    32
  0
VERTEX
  8
É}ÿg
  5
813
 10
189.485
 20
-848.445
 30
0.000000
  70
    32
  0
VERTEX
  8
É}ÿg
  5
814
 10
189.539
 20
-848.457
 30
0.000000
  70
    32
  0
VERTEX
  8
É}ÿg
  5
815
 10
189.594
 20
-848.468
 30
0.000000
  70
    32
  0
VERTEX
  8
É}ÿg
  5
816
 10
189.648
 20
-848.480
 30
0.000000
  70
    32
  0
VERTEX
  8
É}ÿg
  5
817
 10
189.703
 20
-848.491
 30
0.000000
  70
    32
  0
VERTEX
  8
É}ÿg
  5
818
 10
189.758
 20
-848.503
 30
0.000000
  70
    32
  0
VERTEX
  8
É}ÿg
  5
819
 10
189.812
 20
-848.514
 30
0.000000
  70
    32
  0
VERTEX
  8
É}ÿg
  5
81A
 10
189.867
 20
-848.525
 30
0.000000
  70
    32
  0
VERTEX
  8
É}ÿg
  5
81B
 10
189.922
 20
-848.537
 30
0.000000
  70
    32
  0
VERTEX
  8
É}ÿg
  5
81C
 10
189.976
 20
-848.548
 30
0.000000
  70
    32
  0
VERTEX
  8
É}ÿg
  5
81D
 10
190.031
 20
-848.559
 30
0.000000
  70
    32
  0
VERTEX
  8
É}ÿg
  5
81E
 10
190.086
 20
-848.570
 30
0.000000
  70
    32
  0
VERTEX
  8
É}ÿg
  5
81F
 10
190.141
 20
-848.581
 30
0.000000
  70
    32
  0
VERTEX
  8
É}ÿg
  5
820
 10
190.196
 20
-848.592
 30
0.000000
  70
    32
  0
VERTEX
  8
É}ÿg
  5
821
 10
190.250
 20
-848.603
 30
0.000000
  70
    32
  0
VERTEX
  8
É}ÿg
  5
822
 10
190.305
 20
-848.614
 30
0.000000
  70
    32
  0
VERTEX
  8
É}ÿg
  5
823
 10
190.360
 20
-848.625
 30
0.000000
  70
    32
  0
VERTEX
  8
É}ÿg
  5
824
 10
190.415
 20
-848.636
 30
0.000000
  70
    32
  0
VERTEX
  8
É}ÿg
  5
825
 10
190.470
 20
-848.647
 30
0.000000
  70
    32
  0
VERTEX
  8
É}ÿg
  5
826
 10
190.525
 20
-848.657
 30
0.000000
  70
    32
  0
VERTEX
  8
É}ÿg
  5
827
 10
190.580
 20
-848.668
 30
0.000000
  70
    32
  0
VERTEX
  8
É}ÿg
  5
828
 10
190.635
 20
-848.679
 30
0.000000
  70
    32
  0
VERTEX
  8
É}ÿg
  5
829
 10
190.690
 20
-848.689
 30
0.000000
  70
    32
  0
VERTEX
  8
É}ÿg
  5
82A
 10
190.745
 20
-848.700
 30
0.000000
  70
    32
  0
VERTEX
  8
É}ÿg
  5
82B
 10
190.801
 20
-848.711
 30
0.000000
  70
    32
  0
VERTEX
  8
É}ÿg
  5
82C
 10
190.856
 20
-848.721
 30
0.000000
  70
    32
  0
VERTEX
  8
É}ÿg
  5
82D
 10
190.911
 20
-848.732
 30
0.000000
  70
    32
  0
VERTEX
  8
É}ÿg
  5
82E
 10
190.966
 20
-848.742
 30
0.000000
  70
    32
  0
VERTEX
  8
É}ÿg
  5
82F
 10
191.021
 20
-848.752
 30
0.000000
  70
    32
  0
VERTEX
  8
É}ÿg
  5
830
 10
191.077
 20
-848.763
 30
0.000000
  70
    32
  0
VERTEX
  8
É}ÿg
  5
831
 10
191.132
 20
-848.773
 30
0.000000
  70
    32
  0
VERTEX
  8
É}ÿg
  5
832
 10
191.187
 20
-848.783
 30
0.000000
  70
    32
  0
VERTEX
  8
É}ÿg
  5
833
 10
191.242
 20
-848.794
 30
0.000000
  70
    32
  0
VERTEX
  8
É}ÿg
  5
834
 10
191.298
 20
-848.804
 30
0.000000
  70
    32
  0
VERTEX
  8
É}ÿg
  5
835
 10
191.353
 20
-848.814
 30
0.000000
  70
    32
  0
VERTEX
  8
É}ÿg
  5
836
 10
191.408
 20
-848.824
 30
0.000000
  70
    32
  0
VERTEX
  8
É}ÿg
  5
837
 10
191.464
 20
-848.834
 30
0.000000
  70
    32
  0
VERTEX
  8
É}ÿg
  5
838
 10
191.519
 20
-848.844
 30
0.000000
  70
    32
  0
VERTEX
  8
É}ÿg
  5
839
 10
191.575
 20
-848.855
 30
0.000000
  70
    32
  0
VERTEX
  8
É}ÿg
  5
83A
 10
191.630
 20
-848.865
 30
0.000000
  70
    32
  0
VERTEX
  8
É}ÿg
  5
83B
 10
191.686
 20
-848.875
 30
0.000000
  70
    32
  0
VERTEX
  8
É}ÿg
  5
83C
 10
191.741
 20
-848.885
 30
0.000000
  70
    32
  0
VERTEX
  8
É}ÿg
  5
83D
 10
191.797
 20
-848.895
 30
0.000000
  70
    32
  0
VERTEX
  8
É}ÿg
  5
83E
 10
191.852
 20
-848.904
 30
0.000000
  70
    32
  0
VERTEX
  8
É}ÿg
  5
83F
 10
191.908
 20
-848.914
 30
0.000000
  70
    32
  0
VERTEX
  8
É}ÿg
  5
840
 10
191.963
 20
-848.924
 30
0.000000
  70
    32
  0
VERTEX
  8
É}ÿg
  5
841
 10
192.019
 20
-848.934
 30
0.000000
  70
    32
  0
VERTEX
  8
É}ÿg
  5
842
 10
192.074
 20
-848.944
 30
0.000000
  70
    32
  0
VERTEX
  8
É}ÿg
  5
843
 10
192.130
 20
-848.954
 30
0.000000
  70
    32
  0
VERTEX
  8
É}ÿg
  5
844
 10
192.186
 20
-848.964
 30
0.000000
  70
    32
  0
VERTEX
  8
É}ÿg
  5
845
 10
192.241
 20
-848.973
 30
0.000000
  70
    32
  0
VERTEX
  8
É}ÿg
  5
846
 10
192.297
 20
-848.983
 30
0.000000
  70
    32
  0
VERTEX
  8
É}ÿg
  5
847
 10
192.352
 20
-848.993
 30
0.000000
  70
    32
  0
VERTEX
  8
É}ÿg
  5
848
 10
192.408
 20
-849.002
 30
0.000000
  70
    32
  0
VERTEX
  8
É}ÿg
  5
849
 10
192.464
 20
-849.012
 30
0.000000
  70
    32
  0
VERTEX
  8
É}ÿg
  5
84A
 10
192.519
 20
-849.022
 30
0.000000
  70
    32
  0
VERTEX
  8
É}ÿg
  5
84B
 10
192.575
 20
-849.031
 30
0.000000
  70
    32
  0
VERTEX
  8
É}ÿg
  5
84C
 10
192.631
 20
-849.041
 30
0.000000
  70
    32
  0
VERTEX
  8
É}ÿg
  5
84D
 10
192.687
 20
-849.051
 30
0.000000
  70
    32
  0
VERTEX
  8
É}ÿg
  5
84E
 10
192.742
 20
-849.060
 30
0.000000
  70
    32
  0
VERTEX
  8
É}ÿg
  5
84F
 10
192.798
 20
-849.070
 30
0.000000
  70
    32
  0
VERTEX
  8
É}ÿg
  5
850
 10
192.854
 20
-849.079
 30
0.000000
  70
    32
  0
VERTEX
  8
É}ÿg
  5
851
 10
192.909
 20
-849.089
 30
0.000000
  70
    32
  0
VERTEX
  8
É}ÿg
  5
852
 10
192.965
 20
-849.099
 30
0.000000
  70
    32
  0
VERTEX
  8
É}ÿg
  5
853
 10
193.021
 20
-849.108
 30
0.000000
  70
    32
  0
VERTEX
  8
É}ÿg
  5
854
 10
193.077
 20
-849.118
 30
0.000000
  70
    32
  0
VERTEX
  8
É}ÿg
  5
855
 10
193.133
 20
-849.127
 30
0.000000
  70
    32
  0
VERTEX
  8
É}ÿg
  5
856
 10
193.188
 20
-849.137
 30
0.000000
  70
    32
  0
VERTEX
  8
É}ÿg
  5
857
 10
193.244
 20
-849.146
 30
0.000000
  70
    32
  0
VERTEX
  8
É}ÿg
  5
858
 10
193.300
 20
-849.156
 30
0.000000
  70
    32
  0
VERTEX
  8
É}ÿg
  5
859
 10
193.356
 20
-849.165
 30
0.000000
  70
    32
  0
VERTEX
  8
É}ÿg
  5
85A
 10
193.412
 20
-849.175
 30
0.000000
  70
    32
  0
VERTEX
  8
É}ÿg
  5
85B
 10
193.467
 20
-849.184
 30
0.000000
  70
    32
  0
VERTEX
  8
É}ÿg
  5
85C
 10
193.523
 20
-849.193
 30
0.000000
  70
    32
  0
VERTEX
  8
É}ÿg
  5
85D
 10
193.579
 20
-849.203
 30
0.000000
  70
    32
  0
VERTEX
  8
É}ÿg
  5
85E
 10
193.635
 20
-849.212
 30
0.000000
  70
    32
  0
VERTEX
  8
É}ÿg
  5
85F
 10
193.691
 20
-849.222
 30
0.000000
  70
    32
  0
VERTEX
  8
É}ÿg
  5
860
 10
193.746
 20
-849.231
 30
0.000000
  70
    32
  0
VERTEX
  8
É}ÿg
  5
861
 10
193.802
 20
-849.241
 30
0.000000
  70
    32
  0
VERTEX
  8
É}ÿg
  5
862
 10
193.858
 20
-849.250
 30
0.000000
  70
    32
  0
VERTEX
  8
É}ÿg
  5
863
 10
193.914
 20
-849.260
 30
0.000000
  70
    32
  0
VERTEX
  8
É}ÿg
  5
864
 10
193.970
 20
-849.269
 30
0.000000
  70
    32
  0
SEQEND
  8
É}ÿg
  5
865
  0
POLYLINE
  8
É}ÿg
  5
866
  66
     1
 10
0.000000
 20
0.000000
 30
0.000000
  70
     8
  0
VERTEX
  8
É}ÿg
  5
867
 10
177.273
 20
-841.432
 30
0.000000
  70
    32
  0
VERTEX
  8
É}ÿg
  5
868
 10
177.293
 20
-841.454
 30
0.000000
  70
    32
  0
VERTEX
  8
É}ÿg
  5
869
 10
177.312
 20
-841.477
 30
0.000000
  70
    32
  0
VERTEX
  8
É}ÿg
  5
86A
 10
177.332
 20
-841.499
 30
0.000000
  70
    32
  0
VERTEX
  8
É}ÿg
  5
86B
 10
177.352
 20
-841.521
 30
0.000000
  70
    32
  0
VERTEX
  8
É}ÿg
  5
86C
 10
177.372
 20
-841.543
 30
0.000000
  70
    32
  0
VERTEX
  8
É}ÿg
  5
86D
 10
177.391
 20
-841.565
 30
0.000000
  70
    32
  0
VERTEX
  8
É}ÿg
  5
86E
 10
177.411
 20
-841.587
 30
0.000000
  70
    32
  0
VERTEX
  8
É}ÿg
  5
86F
 10
177.431
 20
-841.609
 30
0.000000
  70
    32
  0
VERTEX
  8
É}ÿg
  5
870
 10
177.451
 20
-841.631
 30
0.000000
  70
    32
  0
VERTEX
  8
É}ÿg
  5
871
 10
177.471
 20
-841.653
 30
0.000000
  70
    32
  0
VERTEX
  8
É}ÿg
  5
872
 10
177.491
 20
-841.675
 30
0.000000
  70
    32
  0
VERTEX
  8
É}ÿg
  5
873
 10
177.510
 20
-841.697
 30
0.000000
  70
    32
  0
VERTEX
  8
É}ÿg
  5
874
 10
177.530
 20
-841.719
 30
0.000000
  70
    32
  0
VERTEX
  8
É}ÿg
  5
875
 10
177.550
 20
-841.741
 30
0.000000
  70
    32
  0
VERTEX
  8
É}ÿg
  5
876
 10
177.570
 20
-841.763
 30
0.000000
  70
    32
  0
VERTEX
  8
É}ÿg
  5
877
 10
177.590
 20
-841.785
 30
0.000000
  70
    32
  0
VERTEX
  8
É}ÿg
  5
878
 10
177.609
 20
-841.807
 30
0.000000
  70
    32
  0
VERTEX
  8
É}ÿg
  5
879
 10
177.629
 20
-841.829
 30
0.000000
  70
    32
  0
VERTEX
  8
É}ÿg
  5
87A
 10
177.649
 20
-841.851
 30
0.000000
  70
    32
  0
VERTEX
  8
É}ÿg
  5
87B
 10
177.669
 20
-841.873
 30
0.000000
  70
    32
  0
VERTEX
  8
É}ÿg
  5
87C
 10
177.689
 20
-841.895
 30
0.000000
  70
    32
  0
VERTEX
  8
É}ÿg
  5
87D
 10
177.709
 20
-841.917
 30
0.000000
  70
    32
  0
VERTEX
  8
É}ÿg
  5
87E
 10
177.728
 20
-841.939
 30
0.000000
  70
    32
  0
VERTEX
  8
É}ÿg
  5
87F
 10
177.748
 20
-841.961
 30
0.000000
  70
    32
  0
VERTEX
  8
É}ÿg
  5
880
 10
177.768
 20
-841.983
 30
0.000000
  70
    32
  0
VERTEX
  8
É}ÿg
  5
881
 10
177.788
 20
-842.005
 30
0.000000
  70
    32
  0
VERTEX
  8
É}ÿg
  5
882
 10
177.808
 20
-842.027
 30
0.000000
  70
    32
  0
VERTEX
  8
É}ÿg
  5
883
 10
177.828
 20
-842.049
 30
0.000000
  70
    32
  0
VERTEX
  8
É}ÿg
  5
884
 10
177.848
 20
-842.071
 30
0.000000
  70
    32
  0
VERTEX
  8
É}ÿg
  5
885
 10
177.868
 20
-842.093
 30
0.000000
  70
    32
  0
VERTEX
  8
É}ÿg
  5
886
 10
177.887
 20
-842.115
 30
0.000000
  70
    32
  0
VERTEX
  8
É}ÿg
  5
887
 10
177.907
 20
-842.137
 30
0.000000
  70
    32
  0
VERTEX
  8
É}ÿg
  5
888
 10
177.927
 20
-842.159
 30
0.000000
  70
    32
  0
VERTEX
  8
É}ÿg
  5
889
 10
177.947
 20
-842.181
 30
0.000000
  70
    32
  0
VERTEX
  8
É}ÿg
  5
88A
 10
177.967
 20
-842.203
 30
0.000000
  70
    32
  0
VERTEX
  8
É}ÿg
  5
88B
 10
177.987
 20
-842.224
 30
0.000000
  70
    32
  0
VERTEX
  8
É}ÿg
  5
88C
 10
178.007
 20
-842.246
 30
0.000000
  70
    32
  0
VERTEX
  8
É}ÿg
  5
88D
 10
178.027
 20
-842.268
 30
0.000000
  70
    32
  0
VERTEX
  8
É}ÿg
  5
88E
 10
178.047
 20
-842.290
 30
0.000000
  70
    32
  0
VERTEX
  8
É}ÿg
  5
88F
 10
178.067
 20
-842.312
 30
0.000000
  70
    32
  0
VERTEX
  8
É}ÿg
  5
890
 10
178.087
 20
-842.334
 30
0.000000
  70
    32
  0
VERTEX
  8
É}ÿg
  5
891
 10
178.107
 20
-842.355
 30
0.000000
  70
    32
  0
VERTEX
  8
É}ÿg
  5
892
 10
178.127
 20
-842.377
 30
0.000000
  70
    32
  0
VERTEX
  8
É}ÿg
  5
893
 10
178.147
 20
-842.399
 30
0.000000
  70
    32
  0
VERTEX
  8
É}ÿg
  5
894
 10
178.167
 20
-842.421
 30
0.000000
  70
    32
  0
VERTEX
  8
É}ÿg
  5
895
 10
178.187
 20
-842.442
 30
0.000000
  70
    32
  0
VERTEX
  8
É}ÿg
  5
896
 10
178.207
 20
-842.464
 30
0.000000
  70
    32
  0
VERTEX
  8
É}ÿg
  5
897
 10
178.227
 20
-842.486
 30
0.000000
  70
    32
  0
VERTEX
  8
É}ÿg
  5
898
 10
178.247
 20
-842.508
 30
0.000000
  70
    32
  0
VERTEX
  8
É}ÿg
  5
899
 10
178.267
 20
-842.529
 30
0.000000
  70
    32
  0
VERTEX
  8
É}ÿg
  5
89A
 10
178.287
 20
-842.551
 30
0.000000
  70
    32
  0
VERTEX
  8
É}ÿg
  5
89B
 10
178.307
 20
-842.573
 30
0.000000
  70
    32
  0
VERTEX
  8
É}ÿg
  5
89C
 10
178.327
 20
-842.594
 30
0.000000
  70
    32
  0
VERTEX
  8
É}ÿg
  5
89D
 10
178.347
 20
-842.616
 30
0.000000
  70
    32
  0
VERTEX
  8
É}ÿg
  5
89E
 10
178.367
 20
-842.637
 30
0.000000
  70
    32
  0
VERTEX
  8
É}ÿg
  5
89F
 10
178.387
 20
-842.659
 30
0.000000
  70
    32
  0
VERTEX
  8
É}ÿg
  5
8A0
 10
178.408
 20
-842.680
 30
0.000000
  70
    32
  0
VERTEX
  8
É}ÿg
  5
8A1
 10
178.428
 20
-842.702
 30
0.000000
  70
    32
  0
VERTEX
  8
É}ÿg
  5
8A2
 10
178.448
 20
-842.724
 30
0.000000
  70
    32
  0
VERTEX
  8
É}ÿg
  5
8A3
 10
178.468
 20
-842.745
 30
0.000000
  70
    32
  0
VERTEX
  8
É}ÿg
  5
8A4
 10
178.488
 20
-842.766
 30
0.000000
  70
    32
  0
VERTEX
  8
É}ÿg
  5
8A5
 10
178.508
 20
-842.788
 30
0.000000
  70
    32
  0
VERTEX
  8
É}ÿg
  5
8A6
 10
178.529
 20
-842.809
 30
0.000000
  70
    32
  0
VERTEX
  8
É}ÿg
  5
8A7
 10
178.549
 20
-842.831
 30
0.000000
  70
    32
  0
VERTEX
  8
É}ÿg
  5
8A8
 10
178.569
 20
-842.852
 30
0.000000
  70
    32
  0
VERTEX
  8
É}ÿg
  5
8A9
 10
178.589
 20
-842.874
 30
0.000000
  70
    32
  0
VERTEX
  8
É}ÿg
  5
8AA
 10
178.609
 20
-842.895
 30
0.000000
  70
    32
  0
VERTEX
  8
É}ÿg
  5
8AB
 10
178.630
 20
-842.916
 30
0.000000
  70
    32
  0
VERTEX
  8
É}ÿg
  5
8AC
 10
178.650
 20
-842.937
 30
0.000000
  70
    32
  0
VERTEX
  8
É}ÿg
  5
8AD
 10
178.670
 20
-842.959
 30
0.000000
  70
    32
  0
VERTEX
  8
É}ÿg
  5
8AE
 10
178.691
 20
-842.980
 30
0.000000
  70
    32
  0
VERTEX
  8
É}ÿg
  5
8AF
 10
178.711
 20
-843.001
 30
0.000000
  70
    32
  0
VERTEX
  8
É}ÿg
  5
8B0
 10
178.731
 20
-843.022
 30
0.000000
  70
    32
  0
VERTEX
  8
É}ÿg
  5
8B1
 10
178.752
 20
-843.044
 30
0.000000
  70
    32
  0
VERTEX
  8
É}ÿg
  5
8B2
 10
178.772
 20
-843.065
 30
0.000000
  70
    32
  0
VERTEX
  8
É}ÿg
  5
8B3
 10
178.792
 20
-843.086
 30
0.000000
  70
    32
  0
VERTEX
  8
É}ÿg
  5
8B4
 10
178.813
 20
-843.107
 30
0.000000
  70
    32
  0
VERTEX
  8
É}ÿg
  5
8B5
 10
178.833
 20
-843.128
 30
0.000000
  70
    32
  0
VERTEX
  8
É}ÿg
  5
8B6
 10
178.854
 20
-843.149
 30
0.000000
  70
    32
  0
VERTEX
  8
É}ÿg
  5
8B7
 10
178.874
 20
-843.170
 30
0.000000
  70
    32
  0
VERTEX
  8
É}ÿg
  5
8B8
 10
178.894
 20
-843.191
 30
0.000000
  70
    32
  0
VERTEX
  8
É}ÿg
  5
8B9
 10
178.915
 20
-843.212
 30
0.000000
  70
    32
  0
VERTEX
  8
É}ÿg
  5
8BA
 10
178.935
 20
-843.233
 30
0.000000
  70
    32
  0
VERTEX
  8
É}ÿg
  5
8BB
 10
178.956
 20
-843.254
 30
0.000000
  70
    32
  0
VERTEX
  8
É}ÿg
  5
8BC
 10
178.976
 20
-843.275
 30
0.000000
  70
    32
  0
VERTEX
  8
É}ÿg
  5
8BD
 10
178.997
 20
-843.296
 30
0.000000
  70
    32
  0
VERTEX
  8
É}ÿg
  5
8BE
 10
179.018
 20
-843.317
 30
0.000000
  70
    32
  0
VERTEX
  8
É}ÿg
  5
8BF
 10
179.038
 20
-843.338
 30
0.000000
  70
    32
  0
VERTEX
  8
É}ÿg
  5
8C0
 10
179.059
 20
-843.358
 30
0.000000
  70
    32
  0
VERTEX
  8
É}ÿg
  5
8C1
 10
179.079
 20
-843.379
 30
0.000000
  70
    32
  0
VERTEX
  8
É}ÿg
  5
8C2
 10
179.100
 20
-843.400
 30
0.000000
  70
    32
  0
VERTEX
  8
É}ÿg
  5
8C3
 10
179.121
 20
-843.420
 30
0.000000
  70
    32
  0
VERTEX
  8
É}ÿg
  5
8C4
 10
179.141
 20
-843.441
 30
0.000000
  70
    32
  0
VERTEX
  8
É}ÿg
  5
8C5
 10
179.162
 20
-843.462
 30
0.000000
  70
    32
  0
VERTEX
  8
É}ÿg
  5
8C6
 10
179.183
 20
-843.482
 30
0.000000
  70
    32
  0
VERTEX
  8
É}ÿg
  5
8C7
 10
179.203
 20
-843.503
 30
0.000000
  70
    32
  0
VERTEX
  8
É}ÿg
  5
8C8
 10
179.224
 20
-843.524
 30
0.000000
  70
    32
  0
VERTEX
  8
É}ÿg
  5
8C9
 10
179.245
 20
-843.544
 30
0.000000
  70
    32
  0
VERTEX
  8
É}ÿg
  5
8CA
 10
179.266
 20
-843.565
 30
0.000000
  70
    32
  0
VERTEX
  8
É}ÿg
  5
8CB
 10
179.287
 20
-843.585
 30
0.000000
  70
    32
  0
VERTEX
  8
É}ÿg
  5
8CC
 10
179.307
 20
-843.605
 30
0.000000
  70
    32
  0
VERTEX
  8
É}ÿg
  5
8CD
 10
179.328
 20
-843.626
 30
0.000000
  70
    32
  0
VERTEX
  8
É}ÿg
  5
8CE
 10
179.349
 20
-843.646
 30
0.000000
  70
    32
  0
VERTEX
  8
É}ÿg
  5
8CF
 10
179.370
 20
-843.666
 30
0.000000
  70
    32
  0
VERTEX
  8
É}ÿg
  5
8D0
 10
179.391
 20
-843.687
 30
0.000000
  70
    32
  0
VERTEX
  8
É}ÿg
  5
8D1
 10
179.412
 20
-843.707
 30
0.000000
  70
    32
  0
VERTEX
  8
É}ÿg
  5
8D2
 10
179.433
 20
-843.727
 30
0.000000
  70
    32
  0
VERTEX
  8
É}ÿg
  5
8D3
 10
179.454
 20
-843.747
 30
0.000000
  70
    32
  0
VERTEX
  8
É}ÿg
  5
8D4
 10
179.475
 20
-843.767
 30
0.000000
  70
    32
  0
VERTEX
  8
É}ÿg
  5
8D5
 10
179.496
 20
-843.788
 30
0.000000
  70
    32
  0
VERTEX
  8
É}ÿg
  5
8D6
 10
179.517
 20
-843.808
 30
0.000000
  70
    32
  0
VERTEX
  8
É}ÿg
  5
8D7
 10
179.538
 20
-843.828
 30
0.000000
  70
    32
  0
VERTEX
  8
É}ÿg
  5
8D8
 10
179.559
 20
-843.848
 30
0.000000
  70
    32
  0
VERTEX
  8
É}ÿg
  5
8D9
 10
179.580
 20
-843.868
 30
0.000000
  70
    32
  0
VERTEX
  8
É}ÿg
  5
8DA
 10
179.601
 20
-843.887
 30
0.000000
  70
    32
  0
VERTEX
  8
É}ÿg
  5
8DB
 10
179.623
 20
-843.907
 30
0.000000
  70
    32
  0
VERTEX
  8
É}ÿg
  5
8DC
 10
179.644
 20
-843.927
 30
0.000000
  70
    32
  0
VERTEX
  8
É}ÿg
  5
8DD
 10
179.665
 20
-843.947
 30
0.000000
  70
    32
  0
VERTEX
  8
É}ÿg
  5
8DE
 10
179.686
 20
-843.967
 30
0.000000
  70
    32
  0
VERTEX
  8
É}ÿg
  5
8DF
 10
179.707
 20
-843.986
 30
0.000000
  70
    32
  0
VERTEX
  8
É}ÿg
  5
8E0
 10
179.729
 20
-844.006
 30
0.000000
  70
    32
  0
VERTEX
  8
É}ÿg
  5
8E1
 10
179.750
 20
-844.026
 30
0.000000
  70
    32
  0
VERTEX
  8
É}ÿg
  5
8E2
 10
179.771
 20
-844.045
 30
0.000000
  70
    32
  0
VERTEX
  8
É}ÿg
  5
8E3
 10
179.793
 20
-844.065
 30
0.000000
  70
    32
  0
VERTEX
  8
É}ÿg
  5
8E4
 10
179.814
 20
-844.084
 30
0.000000
  70
    32
  0
VERTEX
  8
É}ÿg
  5
8E5
 10
179.835
 20
-844.104
 30
0.000000
  70
    32
  0
VERTEX
  8
É}ÿg
  5
8E6
 10
179.857
 20
-844.123
 30
0.000000
  70
    32
  0
SEQEND
  8
É}ÿg
  5
8E7
  0
POLYLINE
  8
É}ÿg
  5
8E8
  66
     1
 10
0.000000
 20
0.000000
 30
0.000000
  70
     8
  0
VERTEX
  8
É}ÿg
  5
8E9
 10
183.346
 20
-851.178
 30
0.000000
  70
    32
  0
VERTEX
  8
É}ÿg
  5
8EA
 10
183.427
 20
-851.204
 30
0.000000
  70
    32
  0
VERTEX
  8
É}ÿg
  5
8EB
 10
183.508
 20
-851.229
 30
0.000000
  70
    32
  0
VERTEX
  8
É}ÿg
  5
8EC
 10
183.589
 20
-851.255
 30
0.000000
  70
    32
  0
VERTEX
  8
É}ÿg
  5
8ED
 10
183.670
 20
-851.280
 30
0.000000
  70
    32
  0
VERTEX
  8
É}ÿg
  5
8EE
 10
183.751
 20
-851.305
 30
0.000000
  70
    32
  0
VERTEX
  8
É}ÿg
  5
8EF
 10
183.832
 20
-851.331
 30
0.000000
  70
    32
  0
VERTEX
  8
É}ÿg
  5
8F0
 10
183.913
 20
-851.356
 30
0.000000
  70
    32
  0
VERTEX
  8
É}ÿg
  5
8F1
 10
183.994
 20
-851.380
 30
0.000000
  70
    32
  0
VERTEX
  8
É}ÿg
  5
8F2
 10
184.075
 20
-851.405
 30
0.000000
  70
    32
  0
VERTEX
  8
É}ÿg
  5
8F3
 10
184.157
 20
-851.430
 30
0.000000
  70
    32
  0
VERTEX
  8
É}ÿg
  5
8F4
 10
184.238
 20
-851.454
 30
0.000000
  70
    32
  0
VERTEX
  8
É}ÿg
  5
8F5
 10
184.320
 20
-851.479
 30
0.000000
  70
    32
  0
VERTEX
  8
É}ÿg
  5
8F6
 10
184.401
 20
-851.503
 30
0.000000
  70
    32
  0
VERTEX
  8
É}ÿg
  5
8F7
 10
184.483
 20
-851.527
 30
0.000000
  70
    32
  0
VERTEX
  8
É}ÿg
  5
8F8
 10
184.564
 20
-851.551
 30
0.000000
  70
    32
  0
VERTEX
  8
É}ÿg
  5
8F9
 10
184.646
 20
-851.575
 30
0.000000
  70
    32
  0
VERTEX
  8
É}ÿg
  5
8FA
 10
184.728
 20
-851.599
 30
0.000000
  70
    32
  0
VERTEX
  8
É}ÿg
  5
8FB
 10
184.810
 20
-851.623
 30
0.000000
  70
    32
  0
VERTEX
  8
É}ÿg
  5
8FC
 10
184.892
 20
-851.647
 30
0.000000
  70
    32
  0
VERTEX
  8
É}ÿg
  5
8FD
 10
184.974
 20
-851.670
 30
0.000000
  70
    32
  0
VERTEX
  8
É}ÿg
  5
8FE
 10
185.056
 20
-851.693
 30
0.000000
  70
    32
  0
VERTEX
  8
É}ÿg
  5
8FF
 10
185.138
 20
-851.717
 30
0.000000
  70
    32
  0
VERTEX
  8
É}ÿg
  5
900
 10
185.220
 20
-851.740
 30
0.000000
  70
    32
  0
VERTEX
  8
É}ÿg
  5
901
 10
185.302
 20
-851.763
 30
0.000000
  70
    32
  0
VERTEX
  8
É}ÿg
  5
902
 10
185.384
 20
-851.786
 30
0.000000
  70
    32
  0
VERTEX
  8
É}ÿg
  5
903
 10
185.467
 20
-851.809
 30
0.000000
  70
    32
  0
VERTEX
  8
É}ÿg
  5
904
 10
185.549
 20
-851.832
 30
0.000000
  70
    32
  0
VERTEX
  8
É}ÿg
  5
905
 10
185.631
 20
-851.854
 30
0.000000
  70
    32
  0
VERTEX
  8
É}ÿg
  5
906
 10
185.714
 20
-851.877
 30
0.000000
  70
    32
  0
VERTEX
  8
É}ÿg
  5
907
 10
185.796
 20
-851.899
 30
0.000000
  70
    32
  0
VERTEX
  8
É}ÿg
  5
908
 10
185.879
 20
-851.922
 30
0.000000
  70
    32
  0
VERTEX
  8
É}ÿg
  5
909
 10
185.962
 20
-851.944
 30
0.000000
  70
    32
  0
VERTEX
  8
É}ÿg
  5
90A
 10
186.044
 20
-851.966
 30
0.000000
  70
    32
  0
VERTEX
  8
É}ÿg
  5
90B
 10
186.127
 20
-851.988
 30
0.000000
  70
    32
  0
VERTEX
  8
É}ÿg
  5
90C
 10
186.210
 20
-852.010
 30
0.000000
  70
    32
  0
VERTEX
  8
É}ÿg
  5
90D
 10
186.293
 20
-852.032
 30
0.000000
  70
    32
  0
VERTEX
  8
É}ÿg
  5
90E
 10
186.376
 20
-852.054
 30
0.000000
  70
    32
  0
VERTEX
  8
É}ÿg
  5
90F
 10
186.459
 20
-852.076
 30
0.000000
  70
    32
  0
VERTEX
  8
É}ÿg
  5
910
 10
186.542
 20
-852.097
 30
0.000000
  70
    32
  0
VERTEX
  8
É}ÿg
  5
911
 10
186.625
 20
-852.119
 30
0.000000
  70
    32
  0
VERTEX
  8
É}ÿg
  5
912
 10
186.708
 20
-852.140
 30
0.000000
  70
    32
  0
VERTEX
  8
É}ÿg
  5
913
 10
186.791
 20
-852.162
 30
0.000000
  70
    32
  0
VERTEX
  8
É}ÿg
  5
914
 10
186.874
 20
-852.183
 30
0.000000
  70
    32
  0
VERTEX
  8
É}ÿg
  5
915
 10
186.957
 20
-852.204
 30
0.000000
  70
    32
  0
VERTEX
  8
É}ÿg
  5
916
 10
187.040
 20
-852.225
 30
0.000000
  70
    32
  0
VERTEX
  8
É}ÿg
  5
917
 10
187.124
 20
-852.247
 30
0.000000
  70
    32
  0
VERTEX
  8
É}ÿg
  5
918
 10
187.207
 20
-852.267
 30
0.000000
  70
    32
  0
VERTEX
  8
É}ÿg
  5
919
 10
187.290
 20
-852.288
 30
0.000000
  70
    32
  0
VERTEX
  8
É}ÿg
  5
91A
 10
187.374
 20
-852.309
 30
0.000000
  70
    32
  0
VERTEX
  8
É}ÿg
  5
91B
 10
187.457
 20
-852.330
 30
0.000000
  70
    32
  0
VERTEX
  8
É}ÿg
  5
91C
 10
187.541
 20
-852.351
 30
0.000000
  70
    32
  0
VERTEX
  8
É}ÿg
  5
91D
 10
187.624
 20
-852.371
 30
0.000000
  70
    32
  0
VERTEX
  8
É}ÿg
  5
91E
 10
187.708
 20
-852.392
 30
0.000000
  70
    32
  0
VERTEX
  8
É}ÿg
  5
91F
 10
187.792
 20
-852.412
 30
0.000000
  70
    32
  0
VERTEX
  8
É}ÿg
  5
920
 10
187.875
 20
-852.432
 30
0.000000
  70
    32
  0
VERTEX
  8
É}ÿg
  5
921
 10
187.959
 20
-852.453
 30
0.000000
  70
    32
  0
VERTEX
  8
É}ÿg
  5
922
 10
188.043
 20
-852.473
 30
0.000000
  70
    32
  0
VERTEX
  8
É}ÿg
  5
923
 10
188.127
 20
-852.493
 30
0.000000
  70
    32
  0
VERTEX
  8
É}ÿg
  5
924
 10
188.210
 20
-852.513
 30
0.000000
  70
    32
  0
VERTEX
  8
É}ÿg
  5
925
 10
188.294
 20
-852.533
 30
0.000000
  70
    32
  0
VERTEX
  8
É}ÿg
  5
926
 10
188.378
 20
-852.553
 30
0.000000
  70
    32
  0
VERTEX
  8
É}ÿg
  5
927
 10
188.462
 20
-852.573
 30
0.000000
  70
    32
  0
VERTEX
  8
É}ÿg
  5
928
 10
188.546
 20
-852.593
 30
0.000000
  70
    32
  0
VERTEX
  8
É}ÿg
  5
929
 10
188.630
 20
-852.612
 30
0.000000
  70
    32
  0
VERTEX
  8
É}ÿg
  5
92A
 10
188.714
 20
-852.632
 30
0.000000
  70
    32
  0
VERTEX
  8
É}ÿg
  5
92B
 10
188.798
 20
-852.652
 30
0.000000
  70
    32
  0
VERTEX
  8
É}ÿg
  5
92C
 10
188.882
 20
-852.671
 30
0.000000
  70
    32
  0
VERTEX
  8
É}ÿg
  5
92D
 10
188.967
 20
-852.691
 30
0.000000
  70
    32
  0
VERTEX
  8
É}ÿg
  5
92E
 10
189.051
 20
-852.710
 30
0.000000
  70
    32
  0
VERTEX
  8
É}ÿg
  5
92F
 10
189.135
 20
-852.729
 30
0.000000
  70
    32
  0
VERTEX
  8
É}ÿg
  5
930
 10
189.219
 20
-852.749
 30
0.000000
  70
    32
  0
VERTEX
  8
É}ÿg
  5
931
 10
189.304
 20
-852.768
 30
0.000000
  70
    32
  0
VERTEX
  8
É}ÿg
  5
932
 10
189.388
 20
-852.787
 30
0.000000
  70
    32
  0
VERTEX
  8
É}ÿg
  5
933
 10
189.472
 20
-852.806
 30
0.000000
  70
    32
  0
VERTEX
  8
É}ÿg
  5
934
 10
189.557
 20
-852.825
 30
0.000000
  70
    32
  0
VERTEX
  8
É}ÿg
  5
935
 10
189.641
 20
-852.844
 30
0.000000
  70
    32
  0
VERTEX
  8
É}ÿg
  5
936
 10
189.725
 20
-852.863
 30
0.000000
  70
    32
  0
VERTEX
  8
É}ÿg
  5
937
 10
189.810
 20
-852.882
 30
0.000000
  70
    32
  0
VERTEX
  8
É}ÿg
  5
938
 10
189.894
 20
-852.901
 30
0.000000
  70
    32
  0
VERTEX
  8
É}ÿg
  5
939
 10
189.979
 20
-852.920
 30
0.000000
  70
    32
  0
VERTEX
  8
É}ÿg
  5
93A
 10
190.063
 20
-852.939
 30
0.000000
  70
    32
  0
VERTEX
  8
É}ÿg
  5
93B
 10
190.148
 20
-852.957
 30
0.000000
  70
    32
  0
VERTEX
  8
É}ÿg
  5
93C
 10
190.232
 20
-852.976
 30
0.000000
  70
    32
  0
VERTEX
  8
É}ÿg
  5
93D
 10
190.317
 20
-852.995
 30
0.000000
  70
    32
  0
VERTEX
  8
É}ÿg
  5
93E
 10
190.402
 20
-853.013
 30
0.000000
  70
    32
  0
VERTEX
  8
É}ÿg
  5
93F
 10
190.486
 20
-853.032
 30
0.000000
  70
    32
  0
VERTEX
  8
É}ÿg
  5
940
 10
190.571
 20
-853.050
 30
0.000000
  70
    32
  0
VERTEX
  8
É}ÿg
  5
941
 10
190.656
 20
-853.069
 30
0.000000
  70
    32
  0
VERTEX
  8
É}ÿg
  5
942
 10
190.740
 20
-853.087
 30
0.000000
  70
    32
  0
VERTEX
  8
É}ÿg
  5
943
 10
190.825
 20
-853.106
 30
0.000000
  70
    32
  0
VERTEX
  8
É}ÿg
  5
944
 10
190.910
 20
-853.124
 30
0.000000
  70
    32
  0
VERTEX
  8
É}ÿg
  5
945
 10
190.995
 20
-853.142
 30
0.000000
  70
    32
  0
VERTEX
  8
É}ÿg
  5
946
 10
191.079
 20
-853.161
 30
0.000000
  70
    32
  0
VERTEX
  8
É}ÿg
  5
947
 10
191.164
 20
-853.179
 30
0.000000
  70
    32
  0
VERTEX
  8
É}ÿg
  5
948
 10
191.249
 20
-853.197
 30
0.000000
  70
    32
  0
VERTEX
  8
É}ÿg
  5
949
 10
191.334
 20
-853.215
 30
0.000000
  70
    32
  0
VERTEX
  8
É}ÿg
  5
94A
 10
191.419
 20
-853.234
 30
0.000000
  70
    32
  0
VERTEX
  8
É}ÿg
  5
94B
 10
191.504
 20
-853.252
 30
0.000000
  70
    32
  0
VERTEX
  8
É}ÿg
  5
94C
 10
191.589
 20
-853.270
 30
0.000000
  70
    32
  0
VERTEX
  8
É}ÿg
  5
94D
 10
191.673
 20
-853.288
 30
0.000000
  70
    32
  0
VERTEX
  8
É}ÿg
  5
94E
 10
191.758
 20
-853.306
 30
0.000000
  70
    32
  0
VERTEX
  8
É}ÿg
  5
94F
 10
191.843
 20
-853.324
 30
0.000000
  70
    32
  0
VERTEX
  8
É}ÿg
  5
950
 10
191.928
 20
-853.342
 30
0.000000
  70
    32
  0
VERTEX
  8
É}ÿg
  5
951
 10
192.013
 20
-853.360
 30
0.000000
  70
    32
  0
VERTEX
  8
É}ÿg
  5
952
 10
192.098
 20
-853.378
 30
0.000000
  70
    32
  0
VERTEX
  8
É}ÿg
  5
953
 10
192.183
 20
-853.396
 30
0.000000
  70
    32
  0
VERTEX
  8
É}ÿg
  5
954
 10
192.268
 20
-853.414
 30
0.000000
  70
    32
  0
VERTEX
  8
É}ÿg
  5
955
 10
192.353
 20
-853.432
 30
0.000000
  70
    32
  0
VERTEX
  8
É}ÿg
  5
956
 10
192.438
 20
-853.449
 30
0.000000
  70
    32
  0
VERTEX
  8
É}ÿg
  5
957
 10
192.523
 20
-853.467
 30
0.000000
  70
    32
  0
VERTEX
  8
É}ÿg
  5
958
 10
192.608
 20
-853.485
 30
0.000000
  70
    32
  0
VERTEX
  8
É}ÿg
  5
959
 10
192.693
 20
-853.503
 30
0.000000
  70
    32
  0
VERTEX
  8
É}ÿg
  5
95A
 10
192.778
 20
-853.521
 30
0.000000
  70
    32
  0
VERTEX
  8
É}ÿg
  5
95B
 10
192.863
 20
-853.539
 30
0.000000
  70
    32
  0
VERTEX
  8
É}ÿg
  5
95C
 10
192.949
 20
-853.556
 30
0.000000
  70
    32
  0
VERTEX
  8
É}ÿg
  5
95D
 10
193.034
 20
-853.574
 30
0.000000
  70
    32
  0
VERTEX
  8
É}ÿg
  5
95E
 10
193.119
 20
-853.592
 30
0.000000
  70
    32
  0
VERTEX
  8
É}ÿg
  5
95F
 10
193.204
 20
-853.610
 30
0.000000
  70
    32
  0
VERTEX
  8
É}ÿg
  5
960
 10
193.289
 20
-853.627
 30
0.000000
  70
    32
  0
VERTEX
  8
É}ÿg
  5
961
 10
193.374
 20
-853.645
 30
0.000000
  70
    32
  0
VERTEX
  8
É}ÿg
  5
962
 10
193.459
 20
-853.663
 30
0.000000
  70
    32
  0
VERTEX
  8
É}ÿg
  5
963
 10
193.544
 20
-853.680
 30
0.000000
  70
    32
  0
VERTEX
  8
É}ÿg
  5
964
 10
193.629
 20
-853.698
 30
0.000000
  70
    32
  0
VERTEX
  8
É}ÿg
  5
965
 10
193.714
 20
-853.716
 30
0.000000
  70
    32
  0
VERTEX
  8
É}ÿg
  5
966
 10
193.800
 20
-853.734
 30
0.000000
  70
    32
  0
VERTEX
  8
É}ÿg
  5
967
 10
193.885
 20
-853.751
 30
0.000000
  70
    32
  0
VERTEX
  8
É}ÿg
  5
968
 10
193.970
 20
-853.769
 30
0.000000
  70
    32
  0
SEQEND
  8
É}ÿg
  5
969
  0
POLYLINE
  8
É}ÿg
  5
96A
  66
     1
 10
0.000000
 20
0.000000
 30
0.000000
  70
     8
  0
VERTEX
  8
É}ÿg
  5
96B
 10
166.970
 20
-840.702
 30
0.000000
  70
    32
  0
VERTEX
  8
É}ÿg
  5
96C
 10
167.024
 20
-840.751
 30
0.000000
  70
    32
  0
VERTEX
  8
É}ÿg
  5
96D
 10
167.078
 20
-840.801
 30
0.000000
  70
    32
  0
VERTEX
  8
É}ÿg
  5
96E
 10
167.132
 20
-840.851
 30
0.000000
  70
    32
  0
VERTEX
  8
É}ÿg
  5
96F
 10
167.186
 20
-840.901
 30
0.000000
  70
    32
  0
VERTEX
  8
É}ÿg
  5
970
 10
167.240
 20
-840.951
 30
0.000000
  70
    32
  0
VERTEX
  8
É}ÿg
  5
971
 10
167.294
 20
-841.000
 30
0.000000
  70
    32
  0
VERTEX
  8
É}ÿg
  5
972
 10
167.348
 20
-841.050
 30
0.000000
  70
    32
  0
VERTEX
  8
É}ÿg
  5
973
 10
167.402
 20
-841.100
 30
0.000000
  70
    32
  0
VERTEX
  8
É}ÿg
  5
974
 10
167.456
 20
-841.150
 30
0.000000
  70
    32
  0
VERTEX
  8
É}ÿg
  5
975
 10
167.510
 20
-841.200
 30
0.000000
  70
    32
  0
VERTEX
  8
É}ÿg
  5
976
 10
167.564
 20
-841.249
 30
0.000000
  70
    32
  0
VERTEX
  8
É}ÿg
  5
977
 10
167.618
 20
-841.299
 30
0.000000
  70
    32
  0
VERTEX
  8
É}ÿg
  5
978
 10
167.672
 20
-841.349
 30
0.000000
  70
    32
  0
VERTEX
  8
É}ÿg
  5
979
 10
167.726
 20
-841.398
 30
0.000000
  70
    32
  0
VERTEX
  8
É}ÿg
  5
97A
 10
167.781
 20
-841.448
 30
0.000000
  70
    32
  0
VERTEX
  8
É}ÿg
  5
97B
 10
167.835
 20
-841.498
 30
0.000000
  70
    32
  0
VERTEX
  8
É}ÿg
  5
97C
 10
167.889
 20
-841.548
 30
0.000000
  70
    32
  0
VERTEX
  8
É}ÿg
  5
97D
 10
167.943
 20
-841.597
 30
0.000000
  70
    32
  0
VERTEX
  8
É}ÿg
  5
97E
 10
167.997
 20
-841.647
 30
0.000000
  70
    32
  0
VERTEX
  8
É}ÿg
  5
97F
 10
168.051
 20
-841.696
 30
0.000000
  70
    32
  0
VERTEX
  8
É}ÿg
  5
980
 10
168.105
 20
-841.746
 30
0.000000
  70
    32
  0
VERTEX
  8
É}ÿg
  5
981
 10
168.160
 20
-841.796
 30
0.000000
  70
    32
  0
VERTEX
  8
É}ÿg
  5
982
 10
168.214
 20
-841.845
 30
0.000000
  70
    32
  0
VERTEX
  8
É}ÿg
  5
983
 10
168.268
 20
-841.895
 30
0.000000
  70
    32
  0
VERTEX
  8
É}ÿg
  5
984
 10
168.322
 20
-841.944
 30
0.000000
  70
    32
  0
VERTEX
  8
É}ÿg
  5
985
 10
168.376
 20
-841.994
 30
0.000000
  70
    32
  0
VERTEX
  8
É}ÿg
  5
986
 10
168.431
 20
-842.043
 30
0.000000
  70
    32
  0
VERTEX
  8
É}ÿg
  5
987
 10
168.485
 20
-842.092
 30
0.000000
  70
    32
  0
VERTEX
  8
É}ÿg
  5
988
 10
168.539
 20
-842.142
 30
0.000000
  70
    32
  0
VERTEX
  8
É}ÿg
  5
989
 10
168.593
 20
-842.191
 30
0.000000
  70
    32
  0
VERTEX
  8
É}ÿg
  5
98A
 10
168.648
 20
-842.241
 30
0.000000
  70
    32
  0
VERTEX
  8
É}ÿg
  5
98B
 10
168.702
 20
-842.290
 30
0.000000
  70
    32
  0
VERTEX
  8
É}ÿg
  5
98C
 10
168.756
 20
-842.339
 30
0.000000
  70
    32
  0
VERTEX
  8
É}ÿg
  5
98D
 10
168.811
 20
-842.388
 30
0.000000
  70
    32
  0
VERTEX
  8
É}ÿg
  5
98E
 10
168.865
 20
-842.438
 30
0.000000
  70
    32
  0
VERTEX
  8
É}ÿg
  5
98F
 10
168.919
 20
-842.487
 30
0.000000
  70
    32
  0
VERTEX
  8
É}ÿg
  5
990
 10
168.974
 20
-842.536
 30
0.000000
  70
    32
  0
VERTEX
  8
É}ÿg
  5
991
 10
169.028
 20
-842.585
 30
0.000000
  70
    32
  0
VERTEX
  8
É}ÿg
  5
992
 10
169.083
 20
-842.634
 30
0.000000
  70
    32
  0
VERTEX
  8
É}ÿg
  5
993
 10
169.137
 20
-842.683
 30
0.000000
  70
    32
  0
VERTEX
  8
É}ÿg
  5
994
 10
169.192
 20
-842.732
 30
0.000000
  70
    32
  0
VERTEX
  8
É}ÿg
  5
995
 10
169.246
 20
-842.781
 30
0.000000
  70
    32
  0
VERTEX
  8
É}ÿg
  5
996
 10
169.301
 20
-842.830
 30
0.000000
  70
    32
  0
VERTEX
  8
É}ÿg
  5
997
 10
169.355
 20
-842.878
 30
0.000000
  70
    32
  0
VERTEX
  8
É}ÿg
  5
998
 10
169.410
 20
-842.927
 30
0.000000
  70
    32
  0
VERTEX
  8
É}ÿg
  5
999
 10
169.464
 20
-842.976
 30
0.000000
  70
    32
  0
VERTEX
  8
É}ÿg
  5
99A
 10
169.519
 20
-843.025
 30
0.000000
  70
    32
  0
VERTEX
  8
É}ÿg
  5
99B
 10
169.574
 20
-843.073
 30
0.000000
  70
    32
  0
VERTEX
  8
É}ÿg
  5
99C
 10
169.628
 20
-843.122
 30
0.000000
  70
    32
  0
VERTEX
  8
É}ÿg
  5
99D
 10
169.683
 20
-843.170
 30
0.000000
  70
    32
  0
VERTEX
  8
É}ÿg
  5
99E
 10
169.738
 20
-843.219
 30
0.000000
  70
    32
  0
VERTEX
  8
É}ÿg
  5
99F
 10
169.793
 20
-843.267
 30
0.000000
  70
    32
  0
VERTEX
  8
É}ÿg
  5
9A0
 10
169.847
 20
-843.316
 30
0.000000
  70
    32
  0
VERTEX
  8
É}ÿg
  5
9A1
 10
169.902
 20
-843.364
 30
0.000000
  70
    32
  0
VERTEX
  8
É}ÿg
  5
9A2
 10
169.957
 20
-843.412
 30
0.000000
  70
    32
  0
VERTEX
  8
É}ÿg
  5
9A3
 10
170.012
 20
-843.461
 30
0.000000
  70
    32
  0
VERTEX
  8
É}ÿg
  5
9A4
 10
170.067
 20
-843.509
 30
0.000000
  70
    32
  0
VERTEX
  8
É}ÿg
  5
9A5
 10
170.122
 20
-843.557
 30
0.000000
  70
    32
  0
VERTEX
  8
É}ÿg
  5
9A6
 10
170.177
 20
-843.605
 30
0.000000
  70
    32
  0
VERTEX
  8
É}ÿg
  5
9A7
 10
170.232
 20
-843.653
 30
0.000000
  70
    32
  0
VERTEX
  8
É}ÿg
  5
9A8
 10
170.287
 20
-843.701
 30
0.000000
  70
    32
  0
VERTEX
  8
É}ÿg
  5
9A9
 10
170.342
 20
-843.749
 30
0.000000
  70
    32
  0
VERTEX
  8
É}ÿg
  5
9AA
 10
170.397
 20
-843.796
 30
0.000000
  70
    32
  0
VERTEX
  8
É}ÿg
  5
9AB
 10
170.452
 20
-843.844
 30
0.000000
  70
    32
  0
VERTEX
  8
É}ÿg
  5
9AC
 10
170.508
 20
-843.892
 30
0.000000
  70
    32
  0
VERTEX
  8
É}ÿg
  5
9AD
 10
170.563
 20
-843.939
 30
0.000000
  70
    32
  0
VERTEX
  8
É}ÿg
  5
9AE
 10
170.618
 20
-843.987
 30
0.000000
  70
    32
  0
VERTEX
  8
É}ÿg
  5
9AF
 10
170.673
 20
-844.034
 30
0.000000
  70
    32
  0
VERTEX
  8
É}ÿg
  5
9B0
 10
170.729
 20
-844.082
 30
0.000000
  70
    32
  0
VERTEX
  8
É}ÿg
  5
9B1
 10
170.784
 20
-844.129
 30
0.000000
  70
    32
  0
VERTEX
  8
É}ÿg
  5
9B2
 10
170.840
 20
-844.176
 30
0.000000
  70
    32
  0
VERTEX
  8
É}ÿg
  5
9B3
 10
170.895
 20
-844.223
 30
0.000000
  70
    32
  0
VERTEX
  8
É}ÿg
  5
9B4
 10
170.951
 20
-844.270
 30
0.000000
  70
    32
  0
VERTEX
  8
É}ÿg
  5
9B5
 10
171.006
 20
-844.317
 30
0.000000
  70
    32
  0
VERTEX
  8
É}ÿg
  5
9B6
 10
171.062
 20
-844.364
 30
0.000000
  70
    32
  0
VERTEX
  8
É}ÿg
  5
9B7
 10
171.117
 20
-844.411
 30
0.000000
  70
    32
  0
VERTEX
  8
É}ÿg
  5
9B8
 10
171.173
 20
-844.458
 30
0.000000
  70
    32
  0
VERTEX
  8
É}ÿg
  5
9B9
 10
171.229
 20
-844.505
 30
0.000000
  70
    32
  0
VERTEX
  8
É}ÿg
  5
9BA
 10
171.285
 20
-844.551
 30
0.000000
  70
    32
  0
VERTEX
  8
É}ÿg
  5
9BB
 10
171.340
 20
-844.598
 30
0.000000
  70
    32
  0
VERTEX
  8
É}ÿg
  5
9BC
 10
171.396
 20
-844.644
 30
0.000000
  70
    32
  0
VERTEX
  8
É}ÿg
  5
9BD
 10
171.452
 20
-844.691
 30
0.000000
  70
    32
  0
VERTEX
  8
É}ÿg
  5
9BE
 10
171.508
 20
-844.737
 30
0.000000
  70
    32
  0
VERTEX
  8
É}ÿg
  5
9BF
 10
171.564
 20
-844.783
 30
0.000000
  70
    32
  0
VERTEX
  8
É}ÿg
  5
9C0
 10
171.620
 20
-844.829
 30
0.000000
  70
    32
  0
VERTEX
  8
É}ÿg
  5
9C1
 10
171.676
 20
-844.875
 30
0.000000
  70
    32
  0
VERTEX
  8
É}ÿg
  5
9C2
 10
171.732
 20
-844.921
 30
0.000000
  70
    32
  0
VERTEX
  8
É}ÿg
  5
9C3
 10
171.788
 20
-844.967
 30
0.000000
  70
    32
  0
VERTEX
  8
É}ÿg
  5
9C4
 10
171.845
 20
-845.013
 30
0.000000
  70
    32
  0
VERTEX
  8
É}ÿg
  5
9C5
 10
171.901
 20
-845.058
 30
0.000000
  70
    32
  0
VERTEX
  8
É}ÿg
  5
9C6
 10
171.957
 20
-845.104
 30
0.000000
  70
    32
  0
VERTEX
  8
É}ÿg
  5
9C7
 10
172.014
 20
-845.149
 30
0.000000
  70
    32
  0
VERTEX
  8
É}ÿg
  5
9C8
 10
172.070
 20
-845.195
 30
0.000000
  70
    32
  0
VERTEX
  8
É}ÿg
  5
9C9
 10
172.127
 20
-845.240
 30
0.000000
  70
    32
  0
VERTEX
  8
É}ÿg
  5
9CA
 10
172.183
 20
-845.285
 30
0.000000
  70
    32
  0
VERTEX
  8
É}ÿg
  5
9CB
 10
172.240
 20
-845.330
 30
0.000000
  70
    32
  0
VERTEX
  8
É}ÿg
  5
9CC
 10
172.296
 20
-845.375
 30
0.000000
  70
    32
  0
VERTEX
  8
É}ÿg
  5
9CD
 10
172.353
 20
-845.420
 30
0.000000
  70
    32
  0
VERTEX
  8
É}ÿg
  5
9CE
 10
172.410
 20
-845.465
 30
0.000000
  70
    32
  0
VERTEX
  8
É}ÿg
  5
9CF
 10
172.467
 20
-845.510
 30
0.000000
  70
    32
  0
VERTEX
  8
É}ÿg
  5
9D0
 10
172.523
 20
-845.554
 30
0.000000
  70
    32
  0
VERTEX
  8
É}ÿg
  5
9D1
 10
172.580
 20
-845.599
 30
0.000000
  70
    32
  0
VERTEX
  8
É}ÿg
  5
9D2
 10
172.637
 20
-845.643
 30
0.000000
  70
    32
  0
VERTEX
  8
É}ÿg
  5
9D3
 10
172.694
 20
-845.687
 30
0.000000
  70
    32
  0
VERTEX
  8
É}ÿg
  5
9D4
 10
172.752
 20
-845.731
 30
0.000000
  70
    32
  0
VERTEX
  8
É}ÿg
  5
9D5
 10
172.809
 20
-845.775
 30
0.000000
  70
    32
  0
VERTEX
  8
É}ÿg
  5
9D6
 10
172.866
 20
-845.819
 30
0.000000
  70
    32
  0
VERTEX
  8
É}ÿg
  5
9D7
 10
172.923
 20
-845.863
 30
0.000000
  70
    32
  0
VERTEX
  8
É}ÿg
  5
9D8
 10
172.981
 20
-845.907
 30
0.000000
  70
    32
  0
VERTEX
  8
É}ÿg
  5
9D9
 10
173.038
 20
-845.951
 30
0.000000
  70
    32
  0
VERTEX
  8
É}ÿg
  5
9DA
 10
173.095
 20
-845.994
 30
0.000000
  70
    32
  0
VERTEX
  8
É}ÿg
  5
9DB
 10
173.153
 20
-846.037
 30
0.000000
  70
    32
  0
VERTEX
  8
É}ÿg
  5
9DC
 10
173.210
 20
-846.081
 30
0.000000
  70
    32
  0
VERTEX
  8
É}ÿg
  5
9DD
 10
173.268
 20
-846.124
 30
0.000000
  70
    32
  0
VERTEX
  8
É}ÿg
  5
9DE
 10
173.326
 20
-846.167
 30
0.000000
  70
    32
  0
VERTEX
  8
É}ÿg
  5
9DF
 10
173.384
 20
-846.210
 30
0.000000
  70
    32
  0
VERTEX
  8
É}ÿg
  5
9E0
 10
173.441
 20
-846.252
 30
0.000000
  70
    32
  0
VERTEX
  8
É}ÿg
  5
9E1
 10
173.499
 20
-846.295
 30
0.000000
  70
    32
  0
VERTEX
  8
É}ÿg
  5
9E2
 10
173.557
 20
-846.338
 30
0.000000
  70
    32
  0
VERTEX
  8
É}ÿg
  5
9E3
 10
173.615
 20
-846.380
 30
0.000000
  70
    32
  0
VERTEX
  8
É}ÿg
  5
9E4
 10
173.673
 20
-846.422
 30
0.000000
  70
    32
  0
VERTEX
  8
É}ÿg
  5
9E5
 10
173.732
 20
-846.464
 30
0.000000
  70
    32
  0
VERTEX
  8
É}ÿg
  5
9E6
 10
173.790
 20
-846.506
 30
0.000000
  70
    32
  0
VERTEX
  8
É}ÿg
  5
9E7
 10
173.848
 20
-846.548
 30
0.000000
  70
    32
  0
VERTEX
  8
É}ÿg
  5
9E8
 10
173.907
 20
-846.590
 30
0.000000
  70
    32
  0
VERTEX
  8
É}ÿg
  5
9E9
 10
173.965
 20
-846.632
 30
0.000000
  70
    32
  0
VERTEX
  8
É}ÿg
  5
9EA
 10
174.024
 20
-846.673
 30
0.000000
  70
    32
  0
VERTEX
  8
É}ÿg
  5
9EB
 10
174.082
 20
-846.715
 30
0.000000
  70
    32
  0
VERTEX
  8
É}ÿg
  5
9EC
 10
174.141
 20
-846.756
 30
0.000000
  70
    32
  0
VERTEX
  8
É}ÿg
  5
9ED
 10
174.200
 20
-846.797
 30
0.000000
  70
    32
  0
VERTEX
  8
É}ÿg
  5
9EE
 10
174.258
 20
-846.838
 30
0.000000
  70
    32
  0
VERTEX
  8
É}ÿg
  5
9EF
 10
174.317
 20
-846.879
 30
0.000000
  70
    32
  0
VERTEX
  8
É}ÿg
  5
9F0
 10
174.376
 20
-846.920
 30
0.000000
  70
    32
  0
VERTEX
  8
É}ÿg
  5
9F1
 10
174.435
 20
-846.960
 30
0.000000
  70
    32
  0
VERTEX
  8
É}ÿg
  5
9F2
 10
174.494
 20
-847.001
 30
0.000000
  70
    32
  0
VERTEX
  8
É}ÿg
  5
9F3
 10
174.553
 20
-847.041
 30
0.000000
  70
    32
  0
VERTEX
  8
É}ÿg
  5
9F4
 10
174.613
 20
-847.081
 30
0.000000
  70
    32
  0
VERTEX
  8
É}ÿg
  5
9F5
 10
174.672
 20
-847.121
 30
0.000000
  70
    32
  0
VERTEX
  8
É}ÿg
  5
9F6
 10
174.731
 20
-847.161
 30
0.000000
  70
    32
  0
VERTEX
  8
É}ÿg
  5
9F7
 10
174.791
 20
-847.201
 30
0.000000
  70
    32
  0
VERTEX
  8
É}ÿg
  5
9F8
 10
174.851
 20
-847.240
 30
0.000000
  70
    32
  0
VERTEX
  8
É}ÿg
  5
9F9
 10
174.910
 20
-847.280
 30
0.000000
  70
    32
  0
VERTEX
  8
É}ÿg
  5
9FA
 10
174.970
 20
-847.319
 30
0.000000
  70
    32
  0
VERTEX
  8
É}ÿg
  5
9FB
 10
175.030
 20
-847.358
 30
0.000000
  70
    32
  0
VERTEX
  8
É}ÿg
  5
9FC
 10
175.090
 20
-847.397
 30
0.000000
  70
    32
  0
VERTEX
  8
É}ÿg
  5
9FD
 10
175.150
 20
-847.436
 30
0.000000
  70
    32
  0
VERTEX
  8
É}ÿg
  5
9FE
 10
175.210
 20
-847.475
 30
0.000000
  70
    32
  0
VERTEX
  8
É}ÿg
  5
9FF
 10
175.270
 20
-847.513
 30
0.000000
  70
    32
  0
VERTEX
  8
É}ÿg
  5
A00
 10
175.330
 20
-847.551
 30
0.000000
  70
    32
  0
VERTEX
  8
É}ÿg
  5
A01
 10
175.390
 20
-847.590
 30
0.000000
  70
    32
  0
VERTEX
  8
É}ÿg
  5
A02
 10
175.451
 20
-847.628
 30
0.000000
  70
    32
  0
VERTEX
  8
É}ÿg
  5
A03
 10
175.511
 20
-847.666
 30
0.000000
  70
    32
  0
VERTEX
  8
É}ÿg
  5
A04
 10
175.572
 20
-847.703
 30
0.000000
  70
    32
  0
VERTEX
  8
É}ÿg
  5
A05
 10
175.632
 20
-847.741
 30
0.000000
  70
    32
  0
VERTEX
  8
É}ÿg
  5
A06
 10
175.693
 20
-847.778
 30
0.000000
  70
    32
  0
VERTEX
  8
É}ÿg
  5
A07
 10
175.754
 20
-847.816
 30
0.000000
  70
    32
  0
VERTEX
  8
É}ÿg
  5
A08
 10
175.815
 20
-847.853
 30
0.000000
  70
    32
  0
VERTEX
  8
É}ÿg
  5
A09
 10
175.876
 20
-847.890
 30
0.000000
  70
    32
  0
VERTEX
  8
É}ÿg
  5
A0A
 10
175.937
 20
-847.927
 30
0.000000
  70
    32
  0
SEQEND
  8
É}ÿg
  5
A0B
  0
INSERT
  5
654
  8
0
  6
CONTINUOUS
  2
*U102
 10
0.0
 20
0.0
 30
0.0
  0
LINE
  5
655
  8
É}ÿg
 10
207.66375385870001
 20
-773.89899814440003
 30
0.0
 11
207.66375385870001
 21
-781.09899814439996
 31
0.0
  0
LINE
  5
656
  8
É}ÿg
 10
158.9879407885
 20
-838.76897924369985
 30
0.0
 11
158.9879407885
 21
-843.26897924369985
 31
0.0
  0
LINE
  5
657
  8
É}ÿg
 10
207.66375385870001
 20
-781.09899814439996
 30
0.0
 11
222.06375385870001
 21
-784.69899814439987
 31
0.0
  0
LINE
  5
658
  8
É}ÿg
 10
166.96975897030001
 20
-832.76897924369985
 30
0.0
 11
166.96975897030001
 21
-838.16897924369994
 31
0.0
  0
ARC
  5
659
  8
É}ÿg
 10
145.4879407885
 20
-844.76897924369996
 30
0.0
 40
9.0
 50
270.0
 51
0.0
  0
LINE
  5
65A
  8
É}ÿg
 10
16.006001323700001
 20
-760.99899814440005
 30
0.0
 11
16.006001323700001
 21
-859.99899814440005
 31
0.0
  0
INSERT
  5
65B
  8
0
  6
CONTINUOUS
  2
*U103
 10
0.0
 20
0.0
 30
0.0
  0
INSERT
  5
65C
  8
0
  6
CONTINUOUS
  2
*U104
 10
0.0
 20
0.0
 30
0.0
  0
INSERT
  5
65D
  8
0
  6
CONTINUOUS
  2
*U105
 10
0.0
 20
0.0
 30
0.0
  0
INSERT
  5
65E
  8
0
  6
CONTINUOUS
  2
*U106
 10
0.0
 20
0.0
 30
0.0
  0
LINE
  5
65F
  8
É}ÿg
 10
128.50600132369999
 20
-793.99899814440005
 30
0.0
 11
128.50600132369999
 21
-826.99899814440005
 31
0.0
  0
LINE
  5
660
  8
É}ÿg
 10
16.006001323700001
 20
-826.99899814440005
 30
0.0
 11
451.0060013237001
 21
-826.99899814440005
 31
0.0
  0
LINE
  5
661
  8
É}ÿg
 10
23.506001323700001
 20
-810.49899814440005
 30
0.0
 11
121.0060013237
 21
-810.49899814440005
 31
0.0
  0
LINE
  5
662
  8
É}ÿg
 10
136.00600132369999
 20
-810.49899814440005
 30
0.0
 11
233.50600132369999
 21
-810.49899814440005
 31
0.0
  0
INSERT
  5
663
  8
0
  6
CONTINUOUS
  2
*U107
 10
0.0
 20
0.0
 30
0.0
  0
INSERT
  5
664
  8
0
  6
CONTINUOUS
  2
*U108
 10
0.0
 20
0.0
 30
0.0
  0
LINE
  5
665
  8
É}ÿg
 10
43.006001323699991
 20
-745.99899814440005
 30
0.0
 11
43.006001323699991
 21
-730.99899814440005
 31
0.0
  0
LINE
  5
666
  8
É}ÿg
 10
16.006001323700001
 20
-745.99899814440005
 30
0.0
 11
16.006001323700001
 21
-730.99899814440005
 31
0.0
  0
LINE
  5
667
  8
É}ÿg
 10
358.00600132369999
 20
-745.99899814440005
 30
0.0
 11
358.00600132369999
 21
-730.99899814440005
 31
0.0
  0
LINE
  5
668
  8
É}ÿg
 10
331.00600132369999
 20
-745.99899814440005
 30
0.0
 11
331.00600132369999
 21
-730.99899814440005
 31
0.0
  0
LINE
  5
669
  8
É}ÿg
 10
451.0060013237001
 20
-730.99899814440005
 30
0.0
 11
16.006001323700001
 21
-730.99899814440005
 31
0.0
  0
LINE
  5
66A
  8
É}ÿg
 10
16.006001323700001
 20
-745.99899814440005
 30
0.0
 11
451.0060013237001
 21
-745.99899814440005
 31
0.0
  0
LINE
  5
66B
  8
É}ÿg
 10
193.00600132369999
 20
-745.99899814440005
 30
0.0
 11
193.00600132369999
 21
-730.99899814440005
 31
0.0
  0
INSERT
  5
66C
  8
0
  6
CONTINUOUS
  2
*U109
 10
0.0
 20
0.0
 30
0.0
  0
INSERT
  5
66D
  8
0
  6
CONTINUOUS
  2
*U110
 10
0.0
 20
0.0
 30
0.0
  0
CIRCLE
  5
66E
  8
É}ÿg
 10
191.20600132370001
 20
-777.49899814440005
 30
0.0
 40
3.6000000000000001
  0
LINE
  5
66F
  8
É}ÿg
 10
207.66375385870001
 20
-781.09899814439996
 30
0.0
 11
222.06375385870001
 21
-784.69899814439987
 31
0.0
  0
LINE
  5
670
  8
É}ÿg
 10
207.66375385870001
 20
-773.89899814440003
 30
0.0
 11
207.66375385870001
 21
-781.09899814439996
 31
0.0
  0
LINE
  5
671
  8
É}ÿg
 10
222.06375385870001
 20
-770.2989981444
 30
0.0
 11
222.06375385870001
 21
-784.69899814439987
 31
0.0
  0
LINE
  5
672
  8
É}ÿg
  6
BORDER
 10
191.20600132370001
 20
-766.69899814439987
 30
0.0
 11
191.20600132370001
 21
-788.2989981444
 31
0.0
  0
LINE
  5
673
  8
É}ÿg
  6
BORDER
 10
191.20600132370001
 20
-766.69899814439987
 30
0.0
 11
191.20600132370001
 21
-788.2989981444
 31
0.0
  0
LINE
  5
674
  8
É}ÿg
 10
222.06375385870001
 20
-770.2989981444
 30
0.0
 11
222.06375385870001
 21
-784.69899814439987
 31
0.0
  0
LINE
  5
675
  8
É}ÿg
 10
207.66375385870001
 20
-773.89899814440003
 30
0.0
 11
207.66375385870001
 21
-781.09899814439996
 31
0.0
  0
LINE
  5
676
  8
É}ÿg
 10
207.66375385870001
 20
-781.09899814439996
 30
0.0
 11
222.06375385870001
 21
-784.69899814439987
 31
0.0
  0
LINE
  5
677
  8
É}ÿg
 10
207.66375385870001
 20
-773.89899814440003
 30
0.0
 11
222.06375385870001
 21
-770.2989981444
 31
0.0
  0
CIRCLE
  5
678
  8
É}ÿg
 10
191.20600132370001
 20
-777.49899814440005
 30
0.0
 40
7.2000000000000002
  0
CIRCLE
  5
679
  8
É}ÿg
 10
191.20600132370001
 20
-777.49899814440005
 30
0.0
 40
3.6000000000000001
  0
CIRCLE
  5
67A
  8
É}ÿg
 10
191.20600132370001
 20
-777.49899814440005
 30
0.0
 40
7.2000000000000002
  0
LINE
  5
67B
  8
É}ÿg
 10
207.66375385870001
 20
-773.89899814440003
 30
0.0
 11
222.06375385870001
 21
-770.2989981444
 31
0.0
  0
ENDBLK
  5
67C
  8
0
  0
BLOCK
  8
0
  2
*D51
 70
     1
 10
0.0
 20
0.0
 30
0.0
  3
*D51
  1

  0
TEXT
  5
67F
  8
0
 62
     0
 10
-66.811756922000001
 20
-600.36144840750001
 30
0.0
 40
9.8954164504999991
  1
30
 50
90.0
  0
LINE
  5
680
  8
0
 62
     0
 10
-114.3111124289
 20
-609.54061520129994
 30
0.0
 11
-63.065506960100002
 21
-609.54061520129994
 31
0.0
  0
LINE
  5
681
  8
0
 62
     0
 10
-151.8111124289
 20
-579.54061520129994
 30
0.0
 11
-63.065506960100002
 21
-579.54061520129994
 31
0.0
  0
LINE
  5
682
  8
0
 62
     0
 10
-64.065506960099995
 20
-609.54061520129994
 30
0.0
 11
-64.065506960099995
 21
-582.89894878890004
 31
0.0
  0
LINE
  5
683
  8
0
 62
     0
 10
-64.065506960099995
 20
-609.54061520129994
 30
0.0
 11
-64.065506960099995
 21
-606.18228161369996
 31
0.0
  0
LINE
  5
684
  8
0
 62
     0
 10
-64.065506960099995
 20
-579.54061520129994
 30
0.0
 11
-64.065506960099995
 21
-582.89894878890004
 31
0.0
  0
LINE
  5
685
  8
0
 62
     0
 10
-64.065506960099995
 20
-579.54061520129994
 30
0.0
 11
-64.065506960099995
 21
-606.18228161369996
 31
0.0
  0
LINE
  5
686
  8
0
 62
     0
 10
-64.065506960099995
 20
-579.54061520129994
 30
0.0
 11
-64.065506960099995
 21
-574.54061520129994
 31
0.0
  0
SOLID
  5
687
  8
0
 62
     0
 10
-64.065506960099995
 20
-579.54061520129994
 30
0.0
 11
-66.315506960100009
 21
-570.54061520129994
 31
0.0
 12
-61.815506960100002
 22
-570.54061520129994
 32
0.0
 13
-64.065506960099995
 23
-572.79061520129994
 33
0.0
  0
LINE
  5
688
  8
0
 62
     0
 10
-64.065506960099995
 20
-609.54061520129994
 30
0.0
 11
-64.065506960099995
 21
-614.54061520129994
 31
0.0
  0
SOLID
  5
689
  8
0
 62
     0
 10
-64.065506960099995
 20
-609.54061520129994
 30
0.0
 11
-61.815506960100002
 21
-618.54061520129994
 31
0.0
 12
-66.315506960100009
 22
-618.54061520129994
 32
0.0
 13
-64.065506960099995
 23
-616.29061520129994
 33
0.0
  0
ENDBLK
  5
68A
  8
0
  0
BLOCK
  8
0
  2
*D52
 70
     1
 10
0.0
 20
0.0
 30
0.0
  3
*D52
  1

  0
TEXT
  5
68E
  8
0
 62
     0
 10
-170.63194563510001
 20
-686.79067261249986
 30
0.0
 40
9.8954164504999991
  1
75
  0
LINE
  5
68F
  8
0
 62
     0
 10
-202.3111124289
 20
-645.04061520129994
 30
0.0
 11
-202.3111124289
 21
-690.53692257429987
 31
0.0
  0
LINE
  5
690
  8
0
 62
     0
 10
-127.3111124289
 20
-645.04061520129994
 30
0.0
 11
-127.3111124289
 21
-690.53692257429987
 31
0.0
  0
LINE
  5
691
  8
0
 62
     0
 10
-202.3111124289
 20
-689.53692257429987
 30
0.0
 11
-153.16944601649999
 21
-689.53692257429987
 31
0.0
  0
LINE
  5
692
  8
0
 62
     0
 10
-202.3111124289
 20
-689.53692257429987
 30
0.0
 11
-176.45277884129999
 21
-689.53692257429987
 31
0.0
  0
LINE
  5
693
  8
0
 62
     0
 10
-127.3111124289
 20
-689.53692257429987
 30
0.0
 11
-153.16944601649999
 21
-689.53692257429987
 31
0.0
  0
LINE
  5
694
  8
0
 62
     0
 10
-127.3111124289
 20
-689.53692257429987
 30
0.0
 11
-176.45277884129999
 21
-689.53692257429987
 31
0.0
  0
LINE
  5
695
  8
0
 62
     0
 10
-127.3111124289
 20
-689.53692257429987
 30
0.0
 11
-132.3111124289
 21
-689.53692257429987
 31
0.0
  0
SOLID
  5
696
  8
0
 62
     0
 10
-127.3111124289
 20
-689.53692257429987
 30
0.0
 11
-136.3111124289
 21
-691.78692257429987
 31
0.0
 12
-136.3111124289
 22
-687.28692257429987
 32
0.0
 13
-134.0611124289
 23
-689.53692257429987
 33
0.0
  0
LINE
  5
697
  8
0
 62
     0
 10
-202.3111124289
 20
-689.53692257429987
 30
0.0
 11
-197.3111124289
 21
-689.53692257429987
 31
0.0
  0
SOLID
  5
698
  8
0
 62
     0
 10
-202.3111124289
 20
-689.53692257429987
 30
0.0
 11
-193.3111124289
 21
-687.28692257429987
 31
0.0
 12
-193.3111124289
 22
-691.78692257429987
 32
0.0
 13
-195.5611124289
 23
-689.53692257429987
 33
0.0
  0
ENDBLK
  5
699
  8
0
  0
BLOCK
  8
0
  2
*D53
 70
     1
 10
0.0
 20
0.0
 30
0.0
  3
*D53
  1

  0
TEXT
  5
69D
  8
0
 62
     0
 10
-66.811756922000001
 20
-555.36144840750001
 30
0.0
 40
9.8954164504999991
  1
30
 50
90.0
  0
LINE
  5
69E
  8
0
 62
     0
 10
-151.8111124289
 20
-564.54061520129994
 30
0.0
 11
-63.065506960100002
 21
-564.54061520129994
 31
0.0
  0
LINE
  5
69F
  8
0
 62
     0
 10
-114.3111124289
 20
-534.54061520129994
 30
0.0
 11
-63.065506960100002
 21
-534.54061520129994
 31
0.0
  0
LINE
  5
6A0
  8
0
 62
     0
 10
-64.065506960099995
 20
-564.54061520129994
 30
0.0
 11
-64.065506960099995
 21
-537.89894878890004
 31
0.0
  0
LINE
  5
6A1
  8
0
 62
     0
 10
-64.065506960099995
 20
-564.54061520129994
 30
0.0
 11
-64.065506960099995
 21
-561.18228161369996
 31
0.0
  0
LINE
  5
6A2
  8
0
 62
     0
 10
-64.065506960099995
 20
-534.54061520129994
 30
0.0
 11
-64.065506960099995
 21
-537.89894878890004
 31
0.0
  0
LINE
  5
6A3
  8
0
 62
     0
 10
-64.065506960099995
 20
-534.54061520129994
 30
0.0
 11
-64.065506960099995
 21
-561.18228161369996
 31
0.0
  0
LINE
  5
6A4
  8
0
 62
     0
 10
-64.065506960099995
 20
-534.54061520129994
 30
0.0
 11
-64.065506960099995
 21
-529.54061520129994
 31
0.0
  0
SOLID
  5
6A5
  8
0
 62
     0
 10
-64.065506960099995
 20
-534.54061520129994
 30
0.0
 11
-66.315506960100009
 21
-525.54061520129994
 31
0.0
 12
-61.815506960100002
 22
-525.54061520129994
 32
0.0
 13
-64.065506960099995
 23
-527.79061520129994
 33
0.0
  0
LINE
  5
6A6
  8
0
 62
     0
 10
-64.065506960099995
 20
-564.54061520129994
 30
0.0
 11
-64.065506960099995
 21
-569.54061520129994
 31
0.0
  0
SOLID
  5
6A7
  8
0
 62
     0
 10
-64.065506960099995
 20
-564.54061520129994
 30
0.0
 11
-61.815506960100002
 21
-573.54061520129994
 31
0.0
 12
-66.315506960100009
 22
-573.54061520129994
 32
0.0
 13
-64.065506960099995
 23
-571.29061520129994
 33
0.0
  0
ENDBLK
  5
6A8
  8
0
  0
BLOCK
  8
0
  2
*D54
 70
     1
 10
0.0
 20
0.0
 30
0.0
  3
*D54
  1

  0
TEXT
  5
6AC
  8
0
 62
     0
 10
-66.811756922000001
 20
-577.86144840749989
 30
0.0
 40
9.8954164504999991
  1
15
 50
90.0
  0
LINE
  5
6AD
  8
0
 62
     0
 10
-151.8111124289
 20
-579.54061520129994
 30
0.0
 11
-63.065506960100002
 21
-579.54061520129994
 31
0.0
  0
LINE
  5
6AE
  8
0
 62
     0
 10
-151.8111124289
 20
-564.54061520129994
 30
0.0
 11
-63.065506960100002
 21
-564.54061520129994
 31
0.0
  0
LINE
  5
6AF
  8
0
 62
     0
 10
-64.065506960099995
 20
-579.54061520129994
 30
0.0
 11
-64.065506960099995
 21
-579.54061520129994
 31
0.0
  0
LINE
  5
6B0
  8
0
 62
     0
 10
-64.065506960099995
 20
-579.54061520129994
 30
0.0
 11
-64.065506960099995
 21
-564.54061520129994
 31
0.0
  0
LINE
  5
6B1
  8
0
 62
     0
 10
-64.065506960099995
 20
-564.54061520129994
 30
0.0
 11
-64.065506960099995
 21
-579.54061520129994
 31
0.0
  0
LINE
  5
6B2
  8
0
 62
     0
 10
-64.065506960099995
 20
-564.54061520129994
 30
0.0
 11
-64.065506960099995
 21
-564.54061520129994
 31
0.0
  0
LINE
  5
6B3
  8
0
 62
     0
 10
-64.065506960099995
 20
-564.54061520129994
 30
0.0
 11
-64.065506960099995
 21
-559.54061520129994
 31
0.0
  0
SOLID
  5
6B4
  8
0
 62
     0
 10
-64.065506960099995
 20
-564.54061520129994
 30
0.0
 11
-66.315506960100009
 21
-555.54061520129994
 31
0.0
 12
-61.815506960100002
 22
-555.54061520129994
 32
0.0
 13
-64.065506960099995
 23
-557.79061520129994
 33
0.0
  0
LINE
  5
6B5
  8
0
 62
     0
 10
-64.065506960099995
 20
-579.54061520129994
 30
0.0
 11
-64.065506960099995
 21
-584.54061520129994
 31
0.0
  0
SOLID
  5
6B6
  8
0
 62
     0
 10
-64.065506960099995
 20
-579.54061520129994
 30
0.0
 11
-61.815506960100002
 21
-588.54061520129994
 31
0.0
 12
-66.315506960100009
 22
-588.54061520129994
 32
0.0
 13
-64.065506960099995
 23
-586.29061520129994
 33
0.0
  0
ENDBLK
  5
6B7
  8
0
  0
BLOCK
  8
0
  2
*D55
 70
     1
 10
0.0
 20
0.0
 30
0.0
  3
*D55
  1

  0
TEXT
  5
6BB
  8
0
 62
     0
 10
-329.38419476979999
 20
-104.64709813419999
 30
0.0
 40
9.8954164504999991
  1
580
  0
LINE
  5
6BC
  8
0
 62
     0
 10
-30.652944960599999
 20
-147.6456903202
 30
0.0
 11
-30.652944960599999
 21
-106.3933480961
 31
0.0
  0
LINE
  5
6BD
  8
0
 62
     0
 10
-610.65294496059994
 20
-147.6456903202
 30
0.0
 11
-610.65294496059994
 21
-106.3933480961
 31
0.0
  0
LINE
  5
6BE
  8
0
 62
     0
 10
-30.652944960599999
 20
-107.3933480961
 30
0.0
 11
-306.10086194510001
 21
-107.3933480961
 31
0.0
  0
LINE
  5
6BF
  8
0
 62
     0
 10
-30.652944960599999
 20
-107.3933480961
 30
0.0
 11
-335.205027976
 21
-107.3933480961
 31
0.0
  0
LINE
  5
6C0
  8
0
 62
     0
 10
-610.65294496059994
 20
-107.3933480961
 30
0.0
 11
-306.10086194510001
 21
-107.3933480961
 31
0.0
  0
LINE
  5
6C1
  8
0
 62
     0
 10
-610.65294496059994
 20
-107.3933480961
 30
0.0
 11
-335.205027976
 21
-107.3933480961
 31
0.0
  0
LINE
  5
6C2
  8
0
 62
     0
 10
-610.65294496059994
 20
-107.3933480961
 30
0.0
 11
-605.65294496059994
 21
-107.3933480961
 31
0.0
  0
SOLID
  5
6C3
  8
0
 62
     0
 10
-610.65294496059994
 20
-107.3933480961
 30
0.0
 11
-601.65294496059994
 21
-105.1433480961
 31
0.0
 12
-601.65294496059994
 22
-109.6433480961
 32
0.0
 13
-603.90294496059994
 23
-107.3933480961
 33
0.0
  0
LINE
  5
6C4
  8
0
 62
     0
 10
-30.652944960599999
 20
-107.3933480961
 30
0.0
 11
-35.652944960600003
 21
-107.3933480961
 31
0.0
  0
SOLID
  5
6C5
  8
0
 62
     0
 10
-30.652944960599999
 20
-107.3933480961
 30
0.0
 11
-39.652944960600003
 21
-109.6433480961
 31
0.0
 12
-39.652944960600003
 22
-105.1433480961
 32
0.0
 13
-37.40294496060001
 23
-107.3933480961
 33
0.0
  0
ENDBLK
  5
6C6
  8
0
  0
BLOCK
  8
0
  2
*D56
 70
     1
 10
0.0
 20
0.0
 30
0.0
  3
*D56
  1

  0
TEXT
  5
6CA
  8
0
 62
     0
 10
-329.38419476979999
 20
-85.778087208900004
 30
0.0
 40
9.8954164504999991
  1
598
  0
LINE
  5
6CB
  8
0
 62
     0
 10
-21.652944960599999
 20
-138.6456903202
 30
0.0
 11
-21.652944960599999
 21
-87.524337170799996
 31
0.0
  0
LINE
  5
6CC
  8
0
 62
     0
 10
-619.65294496059994
 20
-138.6456903202
 30
0.0
 11
-619.65294496059994
 21
-87.524337170799996
 31
0.0
  0
LINE
  5
6CD
  8
0
 62
     0
 10
-21.652944960599999
 20
-88.524337170799996
 30
0.0
 11
-306.10086194510001
 21
-88.524337170799996
 31
0.0
  0
LINE
  5
6CE
  8
0
 62
     0
 10
-21.652944960599999
 20
-88.524337170799996
 30
0.0
 11
-335.205027976
 21
-88.524337170799996
 31
0.0
  0
LINE
  5
6CF
  8
0
 62
     0
 10
-619.65294496059994
 20
-88.524337170799996
 30
0.0
 11
-306.10086194510001
 21
-88.524337170799996
 31
0.0
  0
LINE
  5
6D0
  8
0
 62
     0
 10
-619.65294496059994
 20
-88.524337170799996
 30
0.0
 11
-335.205027976
 21
-88.524337170799996
 31
0.0
  0
LINE
  5
6D1
  8
0
 62
     0
 10
-619.65294496059994
 20
-88.524337170799996
 30
0.0
 11
-614.65294496059994
 21
-88.524337170799996
 31
0.0
  0
SOLID
  5
6D2
  8
0
 62
     0
 10
-619.65294496059994
 20
-88.524337170799996
 30
0.0
 11
-610.65294496059994
 21
-86.274337170799996
 31
0.0
 12
-610.65294496059994
 22
-90.774337170799996
 32
0.0
 13
-612.90294496059994
 23
-88.524337170799996
 33
0.0
  0
LINE
  5
6D3
  8
0
 62
     0
 10
-21.652944960599999
 20
-88.524337170799996
 30
0.0
 11
-26.652944960599999
 21
-88.524337170799996
 31
0.0
  0
SOLID
  5
6D4
  8
0
 62
     0
 10
-21.652944960599999
 20
-88.524337170799996
 30
0.0
 11
-30.652944960599999
 21
-90.774337170799996
 31
0.0
 12
-30.652944960599999
 22
-86.274337170799996
 32
0.0
 13
-28.402944960599999
 23
-88.524337170799996
 33
0.0
  0
ENDBLK
  5
6D5
  8
0
  0
BLOCK
  8
0
  2
*D57
 70
     1
 10
0.0
 20
0.0
 30
0.0
  3
*D57
  1

  0
TEXT
  5
6D9
  8
0
 62
     0
 10
-402.6654524258999
 20
-451.79067133439997
 30
0.0
 40
9.8954164504999991
  1
578.5
  0
LINE
  5
6DA
  8
0
 62
     0
 10
-100.5611124289
 20
-482.53692129629991
 30
0.0
 11
-100.5611124289
 21
-453.53692129629991
 31
0.0
  0
LINE
  5
6DB
  8
0
 62
     0
 10
-679.06111242889995
 20
-482.53692129629991
 30
0.0
 11
-679.06111242889995
 21
-453.53692129629991
 31
0.0
  0
LINE
  5
6DC
  8
0
 62
     0
 10
-100.5611124289
 20
-454.53692129630002
 30
0.0
 11
-371.13593922569999
 21
-454.53692129630002
 31
0.0
  0
LINE
  5
6DD
  8
0
 62
     0
 10
-100.5611124289
 20
-454.53692129630002
 30
0.0
 11
-408.48628563210002
 21
-454.53692129630002
 31
0.0
  0
LINE
  5
6DE
  8
0
 62
     0
 10
-679.06111242889995
 20
-454.53692129630002
 30
0.0
 11
-371.13593922569999
 21
-454.53692129630002
 31
0.0
  0
LINE
  5
6DF
  8
0
 62
     0
 10
-679.06111242889995
 20
-454.53692129630002
 30
0.0
 11
-408.48628563210002
 21
-454.53692129630002
 31
0.0
  0
LINE
  5
6E0
  8
0
 62
     0
 10
-679.06111242889995
 20
-454.53692129630002
 30
0.0
 11
-674.06111242889995
 21
-454.53692129630002
 31
0.0
  0
SOLID
  5
6E1
  8
0
 62
     0
 10
-679.06111242889995
 20
-454.53692129630002
 30
0.0
 11
-670.06111242889995
 21
-452.28692129630002
 31
0.0
 12
-670.06111242889995
 22
-456.78692129630002
 32
0.0
 13
-672.31111242889995
 23
-454.53692129630002
 33
0.0
  0
LINE
  5
6E2
  8
0
 62
     0
 10
-100.5611124289
 20
-454.53692129630002
 30
0.0
 11
-105.5611124289
 21
-454.53692129630002
 31
0.0
  0
SOLID
  5
6E3
  8
0
 62
     0
 10
-100.5611124289
 20
-454.53692129630002
 30
0.0
 11
-109.5611124289
 21
-456.78692129630002
 31
0.0
 12
-109.5611124289
 22
-452.28692129630002
 32
0.0
 13
-107.3111124289
 23
-454.53692129630002
 33
0.0
  0
ENDBLK
  5
6E4
  8
0
  0
BLOCK
  8
0
  2
*U58
 70
     1
 10
0.0
 20
0.0
 30
0.0
  3
*U58
  1

  0
TEXT
  5
711
  8
┌▓È_1
  6
CONTINUOUS
 10
182.0804707728
 20
-390.63402412799542
 30
0.0
 40
8.9958330630999992
  1
üiÉ[î^üj
  0
ENDBLK
  5
713
  8
0
  0
BLOCK
  8
0
  2
*U59
 70
     1
 10
0.0
 20
0.0
 30
0.0
  3
*U59
  1

  0
TEXT
  5
715
  8
ë³Æ¨
  6
CONTINUOUS
 10
193.18987541236601
 20
-45.840248022799997
 30
0.0
 40
8.0962498784000001
  1
H**.**.**
  0
ENDBLK
  5
717
  8
0
  0
BLOCK
  8
0
  2
*U60
 70
     1
 10
0.0
 20
0.0
 30
0.0
  3
*U60
  1

  0
TEXT
  5
719
  8
ë³Æ¨
  6
CONTINUOUS
 10
178.0366128305302
 20
-47.653424824600002
 30
0.0
 40
8.0962499027000003
  1
1
  0
ENDBLK
  5
71B
  8
0
  0
BLOCK
  8
0
  2
*U61
 70
     1
 10
0.0
 20
0.0
 30
0.0
  3
*U61
  1

  0
TEXT
  5
71D
  8
ë³Æ¨
  6
CONTINUOUS
 10
258.14041843645532
 20
-45.832748022799997
 30
0.0
 40
8.0962498784000001
  1
**********************
  0
ENDBLK
  5
71F
  8
0
  0
BLOCK
  8
0
  2
*U62
 70
     1
 10
0.0
 20
0.0
 30
0.0
  3
*U62
  1

  0
TEXT
  5
721
  8
ë³Æ¨
  6
CONTINUOUS
 10
396.8412108522117
 20
-45.840248022799997
 30
0.0
 40
8.0962498784000001
  1
üûüû
  0
ENDBLK
  5
723
  8
0
  0
BLOCK
  8
0
  2
*U63
 70
     1
 10
0.0
 20
0.0
 30
0.0
  3
*U63
  1

  0
TEXT
  5
725
  8
┌▓È_1
  6
CONTINUOUS
 10
81.159469656200002
 20
-390.81668063689091
 30
0.0
 40
8.9958330630999992
  1
üiÉ¾î^üj
  0
ENDBLK
  5
727
  8
0
  0
BLOCK
  8
0
  2
*U64
 70
     1
 10
0.0
 20
0.0
 30
0.0
  3
*U64
  1

  0
TEXT
  5
729
  8
É}ÿg
  6
CONTINUOUS
 10
274.9906330681805
 20
-783.43771503595895
 30
0.0
 40
11.694583225300001
  1
ânâCéãü[éÚ(É¾î^ üEÉ[î^ )
  0
ENDBLK
  5
72B
  8
0
  0
BLOCK
  8
0
  2
*U65
 70
     1
 10
0.0
 20
0.0
 30
0.0
  3
*U65
  1

  0
TEXT
  5
72D
  8
É}ÿg
  6
CONTINUOUS
 10
327.40848579883988
 20
-816.43771503595895
 30
0.0
 40
11.694583225300001
  1
FM20-60(D)
  0
ENDBLK
  5
72F
  8
0
  0
BLOCK
  8
0
  2
*U66
 70
     1
 10
0.0
 20
0.0
 30
0.0
  3
*U66
  1

  0
TEXT
  5
731
  8
É}ÿg
  6
CONTINUOUS
 10
333.76036602780988
 20
-848.84408136970001
 30
0.0
 40
11.694583225300001
  1
SHF00039
  0
ENDBLK
  5
733
  8
0
  0
BLOCK
  8
0
  2
*U67
 70
     1
 10
0.0
 20
0.0
 30
0.0
  3
*U67
  1

  0
TEXT
  5
735
  8
É}ÿg
  6
CONTINUOUS
 10
229.97261607616369
 20
-727.20283120750003
 30
0.0
 40
8.9958330630999992
  1
SUS304 0.8t
  0
ENDBLK
  5
737
  8
0
  0
BLOCK
  8
0
  2
*U68
 70
     1
 10
0.0
 20
0.0
 30
0.0
  3
*U68
  1

  0
TEXT
  5
739
  8
É}ÿg
  6
CONTINUOUS
 10
341.62916130859702
 20
-727.20283120750003
 30
0.0
 40
8.9958330630999992
  1
2
  0
ENDBLK
  5
73B
  8
0
  0
BLOCK
  8
0
  2
*U69
 70
     1
 10
0.0
 20
0.0
 30
0.0
  3
*U69
  1

  0
TEXT
  5
73D
  8
É}ÿg
  6
CONTINUOUS
 10
342.15429877167128
 20
-697.20283120750003
 30
0.0
 40
8.9958330630999992
  1
1
  0
ENDBLK
  5
73F
  8
0
  0
BLOCK
  8
0
  2
*U70
 70
     1
 10
0.0
 20
0.0
 30
0.0
  3
*U70
  1

  0
TEXT
  5
741
  8
É}ÿg
  6
CONTINUOUS
 10
229.97261607616369
 20
-697.20283120750003
 30
0.0
 40
8.9958330630999992
  1
SUS304 2.0t
  0
ENDBLK
  5
743
  8
0
  0
BLOCK
  8
0
  2
*U71
 70
     1
 10
0.0
 20
0.0
 30
0.0
  3
*U71
  1

  0
TEXT
  5
745
  8
É}ÿg
  6
CONTINUOUS
 10
341.62916130859702
 20
-712.20283120750003
 30
0.0
 40
8.9958330630999992
  1
2
  0
ENDBLK
  5
747
  8
0
  0
BLOCK
  8
0
  2
*U72
 70
     1
 10
0.0
 20
0.0
 30
0.0
  3
*U72
  1

  0
TEXT
  5
749
  8
É}ÿg
  6
CONTINUOUS
 10
229.97261607616369
 20
-712.20283120750003
 30
0.0
 40
8.9958330630999992
  1
SUS304 0.8t
  0
ENDBLK
  5
74B
  8
0
  0
BLOCK
  8
0
  2
*U73
 70
     1
 10
0.0
 20
0.0
 30
0.0
  3
*U73
  1

  0
TEXT
  5
74D
  8
É}ÿg
  6
CONTINUOUS
 10
26.674825435820811
 20
-697.20283120750003
 30
0.0
 40
8.9958330630999992
  1
3
  0
ENDBLK
  5
74F
  8
0
  0
BLOCK
  8
0
  2
*U74
 70
     1
 10
0.0
 20
0.0
 30
0.0
  3
*U74
  1

  0
TEXT
  5
751
  8
É}ÿg
  6
CONTINUOUS
 10
27.154298771671321
 20
-727.20283120750003
 30
0.0
 40
8.9958330630999992
  1
1
  0
ENDBLK
  5
753
  8
0
  0
BLOCK
  8
0
  2
*U75
 70
     1
 10
0.0
 20
0.0
 30
0.0
  3
*U75
  1

  0
TEXT
  5
755
  8
É}ÿg
  6
CONTINUOUS
 10
26.629161308596959
 20
-712.20283120750003
 30
0.0
 40
8.9958330630999992
  1
2
  0
ENDBLK
  5
757
  8
0
  0
BLOCK
  8
0
  2
*U76
 70
     1
 10
0.0
 20
0.0
 30
0.0
  3
*U76
  1

  0
TEXT
  5
759
  8
É}ÿg
  6
CONTINUOUS
 10
36.085136787798227
 20
-789.54524360769994
 30
0.0
 40
8.9958330630999992
  1
H09.07
  0
ENDBLK
  5
75B
  8
0
  0
BLOCK
  8
0
  2
*U77
 70
     1
 10
0.0
 20
0.0
 30
0.0
  3
*U77
  1

  0
TEXT
  5
75D
  8
É}ÿg
  6
CONTINUOUS
 10
70.634259014215743
 20
-806.5260469760625
 30
0.0
 40
8.9958330630999992
  1
öÆÉ{ëÛ
  0
ENDBLK
  5
75F
  8
0
  0
BLOCK
  8
0
  2
*U78
 70
     1
 10
0.0
 20
0.0
 30
0.0
  3
*U78
  1

  0
TEXT
  5
761
  8
É}ÿg
  6
CONTINUOUS
 10
70.634259014215743
 20
-823.02604697606239
 30
0.0
 40
8.9958330630999992
  1
öÆÉ{ëÛ
  0
ENDBLK
  5
763
  8
0
  0
BLOCK
  8
0
  2
*U79
 70
     1
 10
0.0
 20
0.0
 30
0.0
  3
*U79
  1

  0
TEXT
  5
765
  8
┌▓È_1
  6
CONTINUOUS
 10
38.112023958800002
 20
-678.14566494709538
 30
0.0
 40
8.9958330630999992
  1
üiÉ[î^üj
  0
ENDBLK
  5
767
  8
0
  0
BLOCK
  8
0
  2
*U80
 70
     1
 10
0.0
 20
0.0
 30
0.0
  3
*U80
  1

  0
TEXT
  5
769
  8
┌▓È_1
  6
CONTINUOUS
 10
-23.597493477600011
 20
-678.32832145599093
 30
0.0
 40
8.9958330630999992
  1
üiÉ¾î^üj
  0
ENDBLK
  5
76B
  8
0
  0
BLOCK
  8
0
  2
*U81
 70
     1
 10
0.0
 20
0.0
 30
0.0
  3
*U81
  1

  0
TEXT
  5
76D
  8
┌▓È_1
  6
CONTINUOUS
 10
-666.43500995506645
 20
-369.92824518340001
 30
0.0
 40
9.8954164504999991
  1
2
  0
ENDBLK
  5
76F
  8
0
  0
BLOCK
  8
0
  2
*U82
 70
     1
 10
0.0
 20
0.0
 30
0.0
  3
*U82
  1

  0
TEXT
  5
771
  8
┌▓È_1
  6
CONTINUOUS
 10
-576.35321830133796
 20
-369.92824518340001
 30
0.0
 40
9.8954164504999991
  1
1
  0
ENDBLK
  5
773
  8
0
  0
BLOCK
  8
0
  2
*U83
 70
     1
 10
0.0
 20
0.0
 30
0.0
  3
*U83
  1

  0
TEXT
  5
775
  8
┌▓È_1
  6
CONTINUOUS
 10
-508.61459145096637
 20
-369.92824518340001
 30
0.0
 40
9.8954164504999991
  1
3
  0
ENDBLK
  5
777
  8
0
  0
BLOCK
  8
0
  2
*U84
 70
     1
 10
0.0
 20
0.0
 30
0.0
  3
*U84
  1

  0
TEXT
  5
779
  8
┌▓È_1
  6
CONTINUOUS
 10
-553.03654176240912
 20
-471.91718312691472
 30
0.0
 40
8.9958330630999992
  1
62-Å¼ö╗îè
  0
ENDBLK
  5
77B
  8
0
  0
BLOCK
  8
0
  2
*U85
 70
     1
 10
0.0
 20
0.0
 30
0.0
  3
*U85
  1

  0
TEXT
  5
77D
  8
É}ÿg
  6
CONTINUOUS
 10
98.142105981321833
 20
-727.70513660696236
 30
0.0
 40
8.9958330630999992
  1
û{   æ╠
  0
ENDBLK
  5
77F
  8
0
  0
BLOCK
  8
0
  2
*U86
 70
     1
 10
0.0
 20
0.0
 30
0.0
  3
*U86
  1

  0
TEXT
  5
781
  8
É}ÿg
  6
CONTINUOUS
 10
116.5876641182731
 20
-789.54524360769994
 30
0.0
 40
8.9958330630999992
  1
1üF3
  0
ENDBLK
  5
783
  8
0
  0
BLOCK
  8
0
  2
*U87
 70
     1
 10
0.0
 20
0.0
 30
0.0
  3
*U87
  1

  0
TEXT
  5
785
  8
É}ÿg
  6
CONTINUOUS
 10
96.292708828755593
 20
-697.65947247973861
 30
0.0
 40
8.9958330630999992
  1
èW(û┌ÄM)
  0
ENDBLK
  5
787
  8
0
  0
BLOCK
  8
0
  2
*U88
 70
     1
 10
0.0
 20
0.0
 30
0.0
  3
*U88
  1

  0
TEXT
  5
789
  8
É}ÿg
  6
CONTINUOUS
 10
113.0286114562995
 20
-712.20283120750003
 30
0.0
 40
8.9958330630999992
  1
Ä¿
  0
ENDBLK
  5
78B
  8
0
  0
BLOCK
  8
0
  2
*U89
 70
     1
 10
0.0
 20
0.0
 30
0.0
  3
*U89
  1

  0
TEXT
  5
78D
  8
É}ÿg
  6
CONTINUOUS
 10
185.600121884304
 20
-806.48038284883864
 30
0.0
 40
8.9958330630999992
  1
û÷ î┤
  0
ENDBLK
  5
78F
  8
0
  0
BLOCK
  8
0
  2
*U90
 70
     1
 10
0.0
 20
0.0
 30
0.0
  3
*U90
  1

  0
TEXT
  5
791
  8
É}ÿg
  6
CONTINUOUS
 10
185.600121884304
 20
-822.98038284883853
 30
0.0
 40
8.9958330630999992
  1
û÷ î┤
  0
ENDBLK
  5
793
  8
0
  0
BLOCK
  8
0
  2
*U91
 70
     1
 10
0.0
 20
0.0
 30
0.0
  3
*U91
  1

  0
TEXT
  5
795
  8
É}ÿg
  6
CONTINUOUS
 10
279.79891430405331
 20
-31.25122517398782
 30
0.0
 40
8.0962498784000001
  1
ë³ü@Æ¨ü@ôÓü@ùe
  0
ENDBLK
  5
797
  8
0
  0
BLOCK
  8
0
  2
*U92
 70
     1
 10
0.0
 20
0.0
 30
0.0
  3
*U92
  1

  0
TEXT
  5
799
  8
É}ÿg
  6
CONTINUOUS
 10
201.57380929659749
 20
-31.169029743750251
 30
0.0
 40
8.0962498784000001
  1
ë³Æ¨ô·
  0
ENDBLK
  5
79B
  8
0
  0
BLOCK
  8
0
  2
*U93
 70
     1
 10
0.0
 20
0.0
 30
0.0
  3
*U93
  1

  0
TEXT
  5
79D
  8
É}ÿg
  6
CONTINUOUS
 10
170.8754145469203
 20
-31.086834313512689
 30
0.0
 40
8.0962498784000001
  1
òøöÈ
  0
ENDBLK
  5
79F
  8
0
  0
BLOCK
  8
0
  2
*U94
 70
     1
 10
0.0
 20
0.0
 30
0.0
  3
*U94
  1

  0
TEXT
  5
7A1
  8
É}ÿg
  6
CONTINUOUS
 10
32.325512134
 20
-851.07114763381321
 30
0.0
 40
16.1924997568
  1
èöÄ«ë´Äð
  0
ENDBLK
  5
7A3
  8
0
  0
BLOCK
  8
0
  2
*U95
 70
     1
 10
0.0
 20
0.0
 30
0.0
  3
*U95
  1

  0
TEXT
  5
7A5
  8
É}ÿg
  6
CONTINUOUS
 10
420.88204215998837
 20
-31.2923228891066
 30
0.0
 40
8.0962498784000001
  1
îƒöFÄÊ
  0
ENDBLK
  5
7A7
  8
0
  0
BLOCK
  8
0
  2
*U96
 70
     1
 10
0.0
 20
0.0
 30
0.0
  3
*U96
  1

  0
TEXT
  5
7A9
  8
É}ÿg
  6
CONTINUOUS
 10
245.10127458403531
 20
-838.06881597084316
 30
0.0
 40
8.9958330630999992
  1
É} öÈ
  0
ENDBLK
  5
7AB
  8
0
  0
BLOCK
  8
0
  2
*U97
 70
     1
 10
0.0
 20
0.0
 30
0.0
  3
*U97
  1

  0
TEXT
  5
7AD
  8
É}ÿg
  6
CONTINUOUS
 10
241.973281869201
 20
-772.25147247973848
 30
0.0
 40
8.9958330630999992
  1
É╗òiû╝
  0
ENDBLK
  5
7AF
  8
0
  0
BLOCK
  8
0
  2
*U98
 70
     1
 10
0.0
 20
0.0
 30
0.0
  3
*U98
  1

  0
TEXT
  5
7B1
  8
É}ÿg
  6
CONTINUOUS
 10
242.2244345689322
 20
-805.16014422529088
 30
0.0
 40
8.9958330630999992
  1
É}û╩û╝
  0
ENDBLK
  5
7B3
  8
0
  0
BLOCK
  8
0
  2
*U99
 70
     1
 10
0.0
 20
0.0
 30
0.0
  3
*U99
  1

  0
TEXT
  5
7B5
  8
É}ÿg
  6
CONTINUOUS
 10
31.610052319860159
 20
-773.20639808549538
 30
0.0
 40
8.9958330630999992
  1
ô·ü@ü@òt
  0
ENDBLK
  5
7B7
  8
0
  0
BLOCK
  8
0
  2
*U100
 70
     1
 10
0.0
 20
0.0
 30
0.0
  3
*U100
  1

  0
TEXT
  5
7B9
  8
É}ÿg
  6
CONTINUOUS
 10
105.6511056481591
 20
-773.48038284883864
 30
0.0
 40
8.9958330630999992
  1
Ä┌ü@ü@ôx
  0
ENDBLK
  5
7BB
  8
0
  0
BLOCK
  8
0
  2
*U101
 70
     1
 10
0.0
 20
0.0
 30
0.0
  3
*U101
  1

  0
TEXT
  5
7BD
  8
É}ÿg
  6
CONTINUOUS
 10
391.00533530534472
 20
-31.25122517398782
 30
0.0
 40
8.0962498784000001
  1
ë³Æ¨ÄÊ
  0
ENDBLK
  5
7BF
  8
0
  0
BLOCK
  8
0
  2
*U102
 70
     1
 10
0.0
 20
0.0
 30
0.0
  3
*U102
  1

  0
TEXT
  5
7C1
  8
É}ÿg
  6
CONTINUOUS
 10
18.54661078997411
 20
-742.47681597084306
 30
0.0
 40
8.9958330630999992
  1
òiöÈ
  0
ENDBLK
  5
7C3
  8
0
  0
BLOCK
  8
0
  2
*U103
 70
     1
 10
0.0
 20
0.0
 30
0.0
  3
*U103
  1

  0
TEXT
  5
7C5
  8
É}ÿg
  6
CONTINUOUS
 10
16.006001323700001
 20
-822.98038284883853
 30
0.0
 40
8.9958330630999992
  1
 É╗É}
  0
ENDBLK
  5
7C7
  8
0
  0
BLOCK
  8
0
  2
*U104
 70
     1
 10
0.0
 20
0.0
 30
0.0
  3
*U104
  1

  0
TEXT
  5
7C9
  8
É}ÿg
  6
CONTINUOUS
 10
16.006001323700001
 20
-806.38905459439093
 30
0.0
 40
8.9958330630999992
  1
 É¦îv
  0
ENDBLK
  5
7CB
  8
0
  0
BLOCK
  8
0
  2
*U105
 70
     1
 10
0.0
 20
0.0
 30
0.0
  3
*U105
  1

  0
TEXT
  5
7CD
  8
É}ÿg
  6
CONTINUOUS
 10
128.50600132369999
 20
-823.02604697606239
 30
0.0
 40
8.9958330630999992
  1
 îƒÉ}
  0
ENDBLK
  5
7CF
  8
0
  0
BLOCK
  8
0
  2
*U106
 70
     1
 10
0.0
 20
0.0
 30
0.0
  3
*U106
  1

  0
TEXT
  5
7D1
  8
É}ÿg
  6
CONTINUOUS
 10
128.50600132369999
 20
-806.43471872161479
 30
0.0
 40
8.9958330630999992
  1
 Åãì©
  0
ENDBLK
  5
7D3
  8
0
  0
BLOCK
  8
0
  2
*U107
 70
     1
 10
0.0
 20
0.0
 30
0.0
  3
*U107
  1

  0
TEXT
  5
7D5
  8
É}ÿg
  6
CONTINUOUS
 10
333.2497939630191
 20
-742.65947247973861
 30
0.0
 40
8.9958330630999992
  1
Éöù╩
  0
ENDBLK
  5
7D7
  8
0
  0
BLOCK
  8
0
  2
*U108
 70
     1
 10
0.0
 20
0.0
 30
0.0
  3
*U108
  1

  0
TEXT
  5
7D9
  8
É}ÿg
  6
CONTINUOUS
 10
376.7878760988184
 20
-742.79646486141019
 30
0.0
 40
8.9958330630999992
  1
ö§ü@ü@ü@ìl
  0
ENDBLK
  5
7DB
  8
0
  0
BLOCK
  8
0
  2
*U109
 70
     1
 10
0.0
 20
0.0
 30
0.0
  3
*U109
  1

  0
TEXT
  5
7DD
  8
É}ÿg
  6
CONTINUOUS
 10
233.21476910905761
 20
-742.52248009806704
 30
0.0
 40
8.9958330630999992
  1
ìÌü@ü@ü@Ä┐
  0
ENDBLK
  5
7DF
  8
0
  0
BLOCK
  8
0
  2
*U110
 70
     1
 10
0.0
 20
0.0
 30
0.0
  3
*U110
  1

  0
TEXT
  5
7E1
  8
É}ÿg
  6
CONTINUOUS
 10
89.557250063236552
 20
-742.56814422529078
 30
0.0
 40
8.9958330630999992
  1
òiü@ü@ü@û╝
  0
ENDBLK
  5
7E3
  8
0
  0
ENDSEC
  0
SECTION
  2
ENTITIES
  0
LINE
  5
2F
  8
┌▓È_1
  6
BORDER
 62
     3
 10
169.46363186229999
 20
-239.63755457799999
 30
0.0
 11
234.46363186229999
 21
-239.63755457799999
 31
0.0
  0
DIMENSION
  5
40
  8
Éíû@É³
  2
*D0
 10
250.8785431325
 20
-338.6452189659999
 30
0.0
 11
250.8785431325
 21
-331.64521896600002
 31
0.0
 70
   128
  1
14
 13
229.46363186229999
 23
-338.6452189659999
 33
0.0
 14
229.46363186229999
 24
-324.64521896600002
 34
0.0
 50
90.0
  0
LINE
  5
41
  8
┌▓È_1
 62
     5
 10
178.46363186229999
 20
-327.14521896600002
 30
0.0
 11
199.46363186229999
 21
-327.14521896600002
 31
0.0
  0
LINE
  5
42
  8
┌▓È_1
 62
     5
 10
178.46363186229999
 20
-329.14521896600002
 30
0.0
 11
199.46363186229999
 21
-329.14521896600002
 31
0.0
  0
LINE
  5
43
  8
┌▓È_1
 62
     5
 10
199.46363186229999
 20
-327.64521896600002
 30
0.0
 11
199.46363186229999
 21
-324.64521896600002
 31
0.0
  0
ARC
  5
44
  8
┌▓È_1
 62
     5
 10
178.46363186229999
 20
-327.14521896600002
 30
0.0
 40
2.0
 50
180.0
 51
270.0
  0
INSERT
  5
46
  8
┌▓È_1
 62
     5
  2
CLUMP0
 10
0.0
 20
0.0
 30
0.0
  0
INSERT
  5
62
  8
0
  6
CONTINUOUS
  2
*U58
 10
0.0
 20
0.0
 30
0.0
  0
INSERT
  5
64
  8
0
  6
CONTINUOUS
  2
*U59
 10
0.0
 20
0.0
 30
0.0
  0
INSERT
  5
65
  8
0
  6
CONTINUOUS
  2
*U60
 10
0.0
 20
0.0
 30
0.0
  0
DIMENSION
  5
74
  8
Éíû@É³
  2
*D2
 10
250.8785431325
 20
-154.64616167439999
 30
0.0
 11
250.8785431325
 21
-147.64616167439999
 31
0.0
 70
   128
  1
14
 13
229.46363186229999
 23
-154.64616167439999
 33
0.0
 14
229.46363186229999
 24
-140.64616167439999
 34
0.0
 50
90.0
  0
DIMENSION
  5
83
  8
Éíû@É³
  2
*D3
 10
199.46363186229999
 20
-103.4746376265
 30
0.0
 11
186.96363186229999
 21
-103.4746376265
 31
0.0
 70
   128
  1
<>
 13
199.46363186229999
 23
-149.64616167439999
 33
0.0
 14
174.46363186229999
 24
-140.64616167439999
 34
0.0
  0
DIMENSION
  5
92
  8
Éíû@É³
  2
*D4
 10
229.46363186229999
 20
-103.4746376265
 30
0.0
 11
214.46363186229999
 21
-103.4746376265
 31
0.0
 70
   128
  1
<>
 13
229.46363186229999
 23
-140.64616167439999
 33
0.0
 14
199.46363186229999
 24
-149.64616167439999
 34
0.0
  0
DIMENSION
  5
A1
  8
Éíû@É³
  2
*D5
 10
229.46363186229999
 20
-82.796430991999983
 30
0.0
 11
201.96363186229999
 21
-82.796430991999983
 31
0.0
 70
   128
  1
<>
 13
229.46363186229999
 23
-141.4461616744
 33
0.0
 14
174.46363186229999
 24
-141.4461616744
 34
0.0
  0
LINE
  5
A2
  8
┌▓È_1
 62
     5
 10
199.46363186229999
 20
-149.64616167439999
 30
0.0
 11
199.46363186229999
 21
-150.14616167439999
 31
0.0
  0
LINE
  5
A3
  8
┌▓È_1
 62
     5
 10
199.46363186229999
 20
-151.64616167439999
 30
0.0
 11
199.46363186229999
 21
-154.64616167439999
 31
0.0
  0
LINE
  5
A4
  8
┌▓È_1
 62
     5
 10
178.46363186229999
 20
-152.14616167439999
 30
0.0
 11
199.46363186229999
 21
-152.14616167439999
 31
0.0
  0
LINE
  5
A5
  8
┌▓È_1
 62
     5
 10
178.46363186229999
 20
-150.14616167439999
 30
0.0
 11
199.46363186229999
 21
-150.14616167439999
 31
0.0
  0
INSERT
  5
A7
  8
┌▓È_1
 62
     5
  2
CLUMP1
 10
0.0
 20
0.0
 30
0.0
  0
ARC
  5
C3
  8
┌▓È_1
 62
     5
 10
178.46363186229999
 20
-152.14616167439999
 30
0.0
 40
2.0
 50
90.0
 51
180.0
  0
INSERT
  5
C4
  8
0
  6
CONTINUOUS
  2
*U61
 10
0.0
 20
0.0
 30
0.0
  0
INSERT
  5
C5
  8
0
  6
CONTINUOUS
  2
*U62
 10
0.0
 20
0.0
 30
0.0
  0
LINE
  5
C6
  8
┌▓È_1
 62
     5
 10
-50.653294495300003
 20
-168.64938422520001
 30
0.0
 11
-65.653294495300003
 21
-168.64938422520001
 31
0.0
  0
LINE
  5
C7
  8
┌▓È_1
 62
     5
 10
-140.6532944953
 20
-205.64938422520001
 30
0.0
 11
-125.6532944953
 21
-205.64938422520001
 31
0.0
  0
ARC
  5
C8
  8
┌▓È_1
 62
     5
 10
-65.653294495300003
 20
-172.14938422520001
 30
0.0
 40
3.5
 50
90.0
 51
270.0
  0
LINE
  5
C9
  8
┌▓È_1
 62
     5
 10
-125.6532944953
 20
-198.64938422520001
 30
0.0
 11
-140.6532944953
 21
-198.64938422520001
 31
0.0
  0
ARC
  5
CA
  8
┌▓È_1
 62
     5
 10
-140.6532944953
 20
-202.14938422520001
 30
0.0
 40
3.5
 50
90.0
 51
270.0
  0
ARC
  5
CB
  8
┌▓È_1
 62
     5
 10
-125.6532944953
 20
-187.14938422520001
 30
0.0
 40
3.5
 50
270.0
 51
90.0
  0
LINE
  5
CC
  8
┌▓È_1
 62
     5
 10
-140.6532944953
 20
-190.64938422520001
 30
0.0
 11
-125.6532944953
 21
-190.64938422520001
 31
0.0
  0
LINE
  5
CD
  8
┌▓È_1
 62
     5
 10
-125.6532944953
 20
-183.64938422520001
 30
0.0
 11
-140.6532944953
 21
-183.64938422520001
 31
0.0
  0
LINE
  5
CE
  8
┌▓È_1
 62
     5
 10
-125.6532944953
 20
-168.64938422520001
 30
0.0
 11
-140.6532944953
 21
-168.64938422520001
 31
0.0
  0
ARC
  5
CF
  8
┌▓È_1
 62
     5
 10
-125.6532944953
 20
-172.14938422520001
 30
0.0
 40
3.5
 50
270.0
 51
90.0
  0
LINE
  5
D0
  8
┌▓È_1
 62
     5
 10
-140.6532944953
 20
-175.64938422520001
 30
0.0
 11
-125.6532944953
 21
-175.64938422520001
 31
0.0
  0
ARC
  5
D1
  8
┌▓È_1
 62
     5
 10
-140.6532944953
 20
-187.14938422520001
 30
0.0
 40
3.5
 50
90.0
 51
270.0
  0
ARC
  5
D2
  8
┌▓È_1
 62
     5
 10
-65.653294495300003
 20
-202.14938422520001
 30
0.0
 40
3.5
 50
90.0
 51
270.0
  0
ARC
  5
D3
  8
┌▓È_1
 62
     5
 10
-65.653294495300003
 20
-187.14938422520001
 30
0.0
 40
3.5
 50
90.0
 51
270.0
  0
ARC
  5
D4
  8
┌▓È_1
 62
     5
 10
-140.6532944953
 20
-172.14938422520001
 30
0.0
 40
3.5
 50
90.0
 51
270.0
  0
LINE
  5
D5
  8
┌▓È_1
 62
     5
 10
-65.653294495300003
 20
-175.64938422520001
 30
0.0
 11
-50.653294495300003
 21
-175.64938422520001
 31
0.0
  0
LINE
  5
D6
  8
┌▓È_1
 62
     5
 10
-65.653294495300003
 20
-205.64938422520001
 30
0.0
 11
-50.653294495300003
 21
-205.64938422520001
 31
0.0
  0
LINE
  5
D7
  8
┌▓È_1
 62
     5
 10
-50.653294495300003
 20
-198.64938422520001
 30
0.0
 11
-65.653294495300003
 21
-198.64938422520001
 31
0.0
  0
LINE
  5
D8
  8
┌▓È_1
 62
     5
 10
-33.403294495300003
 20
-152.1456903202
 30
0.0
 11
-31.403294495299999
 21
-152.1456903202
 31
0.0
  0
LINE
  5
D9
  8
┌▓È_1
 62
     5
 10
-33.403294495300003
 20
-152.1456903202
 30
0.0
 11
-33.403294495300003
 21
-150.1456903202
 31
0.0
  0
ARC
  5
DA
  8
┌▓È_1
 62
     5
 10
-50.653294495300003
 20
-202.14938422520001
 30
0.0
 40
3.5
 50
270.0
 51
90.0
  0
ARC
  5
DB
  8
┌▓È_1
 62
     5
 10
-50.653294495300003
 20
-172.14938422520001
 30
0.0
 40
3.5
 50
270.0
 51
90.0
  0
ARC
  5
DC
  8
┌▓È_1
 62
     5
 10
-50.653294495300003
 20
-187.14938422520001
 30
0.0
 40
3.5
 50
270.0
 51
90.0
  0
ARC
  5
DD
  8
┌▓È_1
 62
     5
 10
-125.6532944953
 20
-202.14938422520001
 30
0.0
 40
3.5
 50
270.0
 51
90.0
  0
DIMENSION
  5
EC
  8
Éíû@É³
  2
*D7
 10
2.953033051499999
 20
-149.6456903202
 30
0.0
 11
2.953033051499999
 21
-145.1456903202
 31
0.0
 70
   128
  1
<>
 13
-30.652944960599999
 23
-149.6456903202
 33
0.0
 14
-21.652944960599999
 24
-140.6456903202
 34
0.0
 50
90.0
  0
INSERT
  5
EE
  8
┌▓È_1
  6
BORDER
 62
     5
  2
CLUMP2
 10
0.0
 20
0.0
 30
0.0
  0
INSERT
  5
10B
  8
0
  6
CONTINUOUS
  2
*U63
 10
0.0
 20
0.0
 30
0.0
  0
LINE
  5
10C
  8
┌▓È_1
 62
     5
 10
-30.652944960599999
 20
-395.4975486239
 30
0.0
 11
-30.652944960599999
 21
-409.69754862389988
 31
0.0
  0
LINE
  5
10D
  8
┌▓È_1
 62
     5
 10
-22.4529449606
 20
-418.69754862389988
 30
0.0
 11
-22.4529449606
 21
-423.89754862389998
 31
0.0
  0
LINE
  5
10E
  8
┌▓È_1
 62
     5
 10
-21.652944960599999
 20
-418.69754862389988
 30
0.0
 11
-22.4529449606
 21
-418.69754862389988
 31
0.0
  0
ARC
  5
10F
  8
┌▓È_1
 62
     5
 10
-22.4529449606
 20
-395.4975486239
 30
0.0
 40
0.8
 50
0.0
 51
90.0
  0
LINE
  5
110
  8
┌▓È_1
 62
     5
 10
-21.652944960599999
 20
-423.89754862389998
 30
0.0
 11
-21.652944960599999
 21
-418.69754862389988
 31
0.0
  0
LINE
  5
111
  8
┌▓È_1
 62
     5
 10
-22.4529449606
 20
-394.69754862389999
 30
0.0
 11
-29.852944960599999
 21
-394.69754862389999
 31
0.0
  0
LINE
  5
112
  8
┌▓È_1
 62
     5
 10
-29.852944960599999
 20
-423.89754862389998
 30
0.0
 11
-22.4529449606
 21
-423.89754862389998
 31
0.0
  0
LINE
  5
113
  8
┌▓È_1
 62
     5
 10
-22.4529449606
 20
-400.69754862389988
 30
0.0
 11
-29.852944960599999
 21
-400.69754862389988
 31
0.0
  0
ARC
  5
114
  8
┌▓È_1
 62
     5
 10
-29.852944960599999
 20
-423.89754862389998
 30
0.0
 40
0.8
 50
180.0
 51
270.0
  0
LINE
  5
115
  8
┌▓È_1
 62
     5
 10
-125.6532944953
 20
-310.64938422519998
 30
0.0
 11
-140.6532944953
 21
-310.64938422519998
 31
0.0
  0
ARC
  5
116
  8
┌▓È_1
 62
     5
 10
-125.6532944953
 20
-307.14938422519998
 30
0.0
 40
3.5
 50
270.0
 51
90.0
  0
DIMENSION
  5
125
  8
Éíû@É³
  2
*D9
 10
113.1406775542
 20
-103.64528672519999
 30
0.0
 11
105.5726813205
 21
-103.64528672519999
 31
0.0
 70
   128
  1
<>
 13
113.1406775542
 23
-141.44569032019999
 33
0.0
 14
98.140677554199996
 24
-149.6456903202
 34
0.0
  0
DIMENSION
  5
134
  8
Éíû@É³
  2
*D10
 10
113.1406775542
 20
-82.02512376140001
 30
0.0
 11
98.140677554199996
 21
-82.02512376140001
 31
0.0
 70
   128
  1
<>
 13
113.1406775542
 23
-141.44569032019999
 33
0.0
 14
83.140677554199996
 24
-141.44569032019999
 34
0.0
  0
DIMENSION
  5
143
  8
Éíû@É³
  2
*D11
 10
98.140677554199996
 20
-103.64528672519999
 30
0.0
 11
90.400200975700002
 21
-103.64528672519999
 31
0.0
 70
   128
  1
<>
 13
98.140677554199996
 23
-149.6456903202
 33
0.0
 14
83.140677554199996
 24
-141.44569032019999
 34
0.0
  0
DIMENSION
  5
152
  8
Éíû@É³
  2
*D12
 10
136.12611990650001
 20
-156.1456903202
 30
0.0
 11
136.12611990650001
 21
-122.93824136080001
 31
0.0
 70
   128
  1
15.5
 13
112.3406775542
 23
-156.1456903202
 33
0.0
 14
112.3406775542
 24
-140.6456903202
 34
0.0
 50
90.0
  0
ARC
  5
153
  8
┌▓È_1
 62
     5
 10
86.140677554199996
 20
-152.14616167439999
 30
0.0
 40
2.0
 50
90.0
 51
180.0000386554
  0
LINE
  5
154
  8
┌▓È_1
 62
     5
 10
86.640677554199996
 20
-152.14616167439999
 30
0.0
 11
86.140677554199996
 21
-152.14616167439999
 31
0.0
  0
LINE
  5
155
  8
┌▓È_1
 62
     5
 10
86.140677554199996
 20
-152.14616167439999
 30
0.0
 11
98.140677554199996
 21
-152.14616167439999
 31
0.0
  0
INSERT
  5
157
  8
┌▓È_1
  6
BORDER
 62
     5
  2
CLUMP3
 10
0.0
 20
0.0
 30
0.0
  0
LINE
  5
174
  8
┌▓È_1
 62
     5
 10
86.140677554199996
 20
-150.14616167439999
 30
0.0
 11
98.140677554199996
 21
-150.14616167439999
 31
0.0
  0
DIMENSION
  5
183
  8
Éíû@É³
  2
*D14
 10
-21.652944960599999
 20
-107.3933480961
 30
0.0
 11
-26.152944960599999
 21
-107.3933480961
 31
0.0
 70
   128
  1
<>
 13
-21.652944960599999
 23
-140.6456903202
 33
0.0
 14
-30.652944960599999
 24
-149.6456903202
 34
0.0
  0
LINE
  5
184
  8
┌▓È_1
 62
     5
 10
-65.653294495300003
 20
-190.64938422520001
 30
0.0
 11
-50.653294495300003
 21
-190.64938422520001
 31
0.0
  0
LINE
  5
185
  8
┌▓È_1
 62
     5
 10
-50.653294495300003
 20
-183.64938422520001
 30
0.0
 11
-65.653294495300003
 21
-183.64938422520001
 31
0.0
  0
LINE
  5
186
  8
┌▓È_1
 62
     5
 10
86.140677910499988
 20
-329.14521896600002
 30
0.0
 11
98.140677554199996
 21
-329.14521896600002
 31
0.0
  0
ARC
  5
187
  8
┌▓È_1
 62
     5
 10
-50.653294495300003
 20
-307.14938422519998
 30
0.0
 40
3.5
 50
270.0
 51
90.0
  0
ARC
  5
188
  8
┌▓È_1
 62
     5
 10
-140.6532944953
 20
-307.14938422519998
 30
0.0
 40
3.5
 50
90.0
 51
270.0
  0
LINE
  5
189
  8
┌▓È_1
 62
     5
 10
83.140677554199996
 20
-330.44569032020001
 30
0.0
 11
83.140677554199996
 21
-239.63755457799999
 31
0.0
  0
LINE
  5
18A
  8
┌▓È_1
 62
     5
 10
-140.6532944953
 20
-303.64938422519998
 30
0.0
 11
-125.6532944953
 21
-303.64938422519998
 31
0.0
  0
ARC
  5
18B
  8
┌▓È_1
 62
     5
 10
-65.653294495300003
 20
-307.14938422519998
 30
0.0
 40
3.5
 50
90.0
 51
270.0
  0
LINE
  5
18C
  8
┌▓È_1
 62
     5
 10
-65.653294495300003
 20
-303.64938422519998
 30
0.0
 11
-50.653294495300003
 21
-303.64938422519998
 31
0.0
  0
LINE
  5
18D
  8
┌▓È_1
 62
     5
 10
-50.653294495300003
 20
-310.64938422519998
 30
0.0
 11
-65.653294495300003
 21
-310.64938422519998
 31
0.0
  0
LINE
  5
18E
  8
┌▓È_1
 62
     5
 10
-33.403294495300003
 20
-327.1456903202
 30
0.0
 11
-31.403294495299999
 21
-327.1456903202
 31
0.0
  0
LINE
  5
18F
  8
┌▓È_1
 62
     5
 10
-33.403294495300003
 20
-327.1456903202
 30
0.0
 11
-33.403294495300003
 21
-329.1456903202
 31
0.0
  0
ARC
  5
190
  8
┌▓È_1
 62
     5
 10
-29.852944960599999
 20
-395.4975486239
 30
0.0
 40
0.8
 50
90.0
 51
180.0
  0
LINE
  5
191
  8
┌▓È_1
 62
     5
 10
-29.852944960599999
 20
-409.69754862389988
 30
0.0
 11
-29.852944960599999
 21
-423.89754862389998
 31
0.0
  0
LINE
  5
192
  8
┌▓È_1
 62
     5
 10
-29.852944960599999
 20
-395.4975486239
 30
0.0
 11
-22.4529449606
 21
-395.4975486239
 31
0.0
  0
LINE
  5
193
  8
┌▓È_1
 62
     5
 10
-29.052944960600001
 20
-424.69754862389999
 30
0.0
 11
-36.352944960599999
 21
-424.69754862389999
 31
0.0
  0
LINE
  5
194
  8
┌▓È_1
 62
     5
 10
-29.052944960600001
 20
-424.69754862389999
 30
0.0
 11
-22.4529449606
 21
-424.69754862389999
 31
0.0
  0
LINE
  5
195
  8
┌▓È_1
 62
     5
 10
-29.852944960599999
 20
-409.69754862389988
 30
0.0
 11
-29.852944960599999
 21
-395.4975486239
 31
0.0
  0
ARC
  5
196
  8
┌▓È_1
 62
     5
 10
-22.4529449606
 20
-423.89754862389998
 30
0.0
 40
0.8
 50
270.0
 51
0.0
  0
LINE
  5
197
  8
┌▓È_1
 62
     5
 10
-22.4529449606
 20
-395.4975486239
 30
0.0
 11
-22.4529449606
 21
-400.69754862389988
 31
0.0
  0
LINE
  5
198
  8
┌▓È_1
 62
     5
 10
-22.4529449606
 20
-400.69754862389988
 30
0.0
 11
-21.652944960599999
 21
-400.69754862389988
 31
0.0
  0
LINE
  5
199
  8
┌▓È_1
 62
     5
 10
-21.652944960599999
 20
-400.69754862389988
 30
0.0
 11
-21.652944960599999
 21
-395.4975486239
 31
0.0
  0
ARC
  5
19A
  8
┌▓È_1
 62
     5
 10
-33.402944960600003
 20
-397.69754862389999
 30
0.0
 40
2.0
 50
0.0
 51
90.0
  0
LINE
  5
19B
  8
┌▓È_1
 62
     5
 10
-31.402944960599999
 20
-397.69754862389999
 30
0.0
 11
-31.402944960599999
 21
-409.69754862389988
 31
0.0
  0
LINE
  5
19C
  8
┌▓È_1
 62
     5
 10
-33.402944960600003
 20
-397.69754862389999
 30
0.0
 11
-33.402944960600003
 21
-409.69754862389988
 31
0.0
  0
LINE
  5
19D
  8
┌▓È_1
 62
     5
 10
-30.652944960599999
 20
-409.69754862389988
 30
0.0
 11
-30.652944960599999
 21
-423.89754862389998
 31
0.0
  0
LINE
  5
19E
  8
┌▓È_1
 62
     5
 10
-30.652944960599999
 20
-409.69754862389988
 30
0.0
 11
-36.352944960599999
 21
-409.69754862389988
 31
0.0
  0
LINE
  5
19F
  8
┌▓È_1
 62
     5
 10
-140.6532944953
 20
-288.64938422519998
 30
0.0
 11
-125.6532944953
 21
-288.64938422519998
 31
0.0
  0
LINE
  5
1A0
  8
┌▓È_1
 62
     5
 10
-125.6532944953
 20
-295.64938422519998
 30
0.0
 11
-140.6532944953
 21
-295.64938422519998
 31
0.0
  0
ARC
  5
1A1
  8
┌▓È_1
 62
     5
 10
-140.6532944953
 20
-292.14938422519998
 30
0.0
 40
3.5
 50
90.0
 51
270.0
  0
ARC
  5
1A2
  8
┌▓È_1
 62
     5
 10
-65.653294495300003
 20
-292.14938422519998
 30
0.0
 40
3.5
 50
90.0
 51
270.0
  0
ARC
  5
1A3
  8
┌▓È_1
 62
     5
 10
-65.653294495300003
 20
-277.14938422519998
 30
0.0
 40
3.5
 50
90.0
 51
270.0
  0
LINE
  5
1A4
  8
┌▓È_1
 62
     5
 10
-50.653294495300003
 20
-295.64938422519998
 30
0.0
 11
-65.653294495300003
 21
-295.64938422519998
 31
0.0
  0
LINE
  5
1A5
  8
┌▓È_1
 62
     5
 10
-65.653294495300003
 20
-288.64938422519998
 30
0.0
 11
-50.653294495300003
 21
-288.64938422519998
 31
0.0
  0
LINE
  5
1A6
  8
┌▓È_1
 62
     5
 10
-65.653294495300003
 20
-273.64938422519998
 30
0.0
 11
-50.653294495300003
 21
-273.64938422519998
 31
0.0
  0
LINE
  5
1A7
  8
┌▓È_1
 62
     5
 10
-50.653294495300003
 20
-280.64938422519998
 30
0.0
 11
-65.653294495300003
 21
-280.64938422519998
 31
0.0
  0
ARC
  5
1A8
  8
┌▓È_1
 62
     5
 10
-50.653294495300003
 20
-292.14938422519998
 30
0.0
 40
3.5
 50
270.0
 51
90.0
  0
ARC
  5
1A9
  8
┌▓È_1
 62
     5
 10
-50.653294495300003
 20
-277.14938422519998
 30
0.0
 40
3.5
 50
270.0
 51
90.0
  0
LINE
  5
1AA
  8
┌▓È_1
 62
     5
 10
-88.153294495300003
 20
-243.64938422520001
 30
0.0
 11
-103.1532944953
 21
-243.64938422520001
 31
0.0
  0
ARC
  5
1AB
  8
┌▓È_1
 62
     5
 10
-103.1532944953
 20
-247.14938422520001
 30
0.0
 40
3.5
 50
90.0
 51
270.0
  0
LINE
  5
1AC
  8
┌▓È_1
 62
     5
 10
-103.1532944953
 20
-250.64938422520001
 30
0.0
 11
-88.153294495300003
 21
-250.64938422520001
 31
0.0
  0
ARC
  5
1AD
  8
┌▓È_1
 62
     5
 10
-125.6532944953
 20
-277.14938422519998
 30
0.0
 40
3.5
 50
270.0
 51
90.0
  0
ARC
  5
1AE
  8
┌▓È_1
 62
     5
 10
-88.153294495300003
 20
-247.14938422520001
 30
0.0
 40
3.5
 50
270.0
 51
90.0
  0
LINE
  5
1AF
  8
┌▓È_1
 62
     5
 10
-103.1532944953
 20
-235.64938422520001
 30
0.0
 11
-88.153294495300003
 21
-235.64938422520001
 31
0.0
  0
LINE
  5
1B0
  8
┌▓È_1
 62
     5
 10
-88.153294495300003
 20
-228.64938422520001
 30
0.0
 11
-103.1532944953
 21
-228.64938422520001
 31
0.0
  0
DIMENSION
  5
1BF
  8
Éíû@É³
  2
*D15
 10
11.3453384257
 20
-424.69754862389999
 30
0.0
 11
11.3453384257
 21
-421.69754862389988
 31
0.0
 70
   128
  1
<>
 13
-22.4529449606
 23
-424.69754862389999
 33
0.0
 14
-21.652944960599999
 24
-418.69754862389988
 34
0.0
 50
90.0
  0
DIMENSION
  5
1CE
  8
Éíû@É³
  2
*D16
 10
11.3453384257
 20
-400.69754862389988
 30
0.0
 11
11.3453384257
 21
-397.69754862389999
 31
0.0
 70
   128
  1
<>
 13
-21.652944960599999
 23
-400.69754862389988
 33
0.0
 14
-22.4529449606
 24
-394.69754862389999
 34
0.0
 50
90.0
  0
DIMENSION
  5
1DD
  8
Éíû@É³
  2
*D17
 10
2.953033051499999
 20
-338.6456903202
 30
0.0
 11
2.953033051499999
 21
-334.1456903202
 31
0.0
 70
   128
  1
<>
 13
-21.652944960599999
 23
-338.6456903202
 33
0.0
 14
-30.652944960599999
 24
-329.6456903202
 34
0.0
 50
90.0
  0
DIMENSION
  5
1EC
  8
Éíû@É³
  2
*D18
 10
136.12611990650001
 20
-338.6456903202
 30
0.0
 11
136.12611990650001
 21
-356.63668000529998
 31
0.0
 70
   128
  1
15.5
 13
112.3406775542
 23
-338.6456903202
 33
0.0
 14
112.3406775542
 24
-323.1456903202
 34
0.0
 50
90.0
  0
LINE
  5
1ED
  8
┌▓È_1
 62
     5
 10
86.140677554199996
 20
-327.14521896600002
 30
0.0
 11
98.140677554199996
 21
-327.14521896600002
 31
0.0
  0
LINE
  5
1EE
  8
┌▓È_1
 62
     5
 10
86.640677554199996
 20
-327.14521896600002
 30
0.0
 11
86.140677554199996
 21
-327.14521896600002
 31
0.0
  0
ARC
  5
1EF
  8
┌▓È_1
 62
     5
 10
86.140677554199996
 20
-327.14521896600002
 30
0.0
 40
2.0
 50
180.0
 51
270.00001020809998
  0
ARC
  5
1F0
  8
┌▓È_1
 62
     5
 10
-8.6353071650000004
 20
-484.53692129629991
 30
0.0
 40
2.0
 50
90.0
 51
180.0000386554
  0
LINE
  5
1F1
  8
┌▓È_1
 62
     5
 10
-8.6353071650000004
 20
-482.53692129629991
 30
0.0
 11
3.364692835
 21
-482.53692129629991
 31
0.0
  0
LINE
  5
1F2
  8
┌▓È_1
 62
     5
 10
46.343364710000003
 20
-484.53692129629991
 30
0.0
 11
67.343364710000003
 21
-484.53692129629991
 31
0.0
  0
LINE
  5
1F3
  8
┌▓È_1
 62
     5
 10
46.343364710000003
 20
-482.53692129629991
 30
0.0
 11
67.343364710000003
 21
-482.53692129629991
 31
0.0
  0
ARC
  5
1F4
  8
┌▓È_1
 62
     5
 10
46.343364710000003
 20
-484.53692129629991
 30
0.0
 40
2.0
 50
90.0
 51
180.0
  0
LINE
  5
1F5
  8
┌▓È_1
 62
     5
 10
67.343364710000003
 20
-482.53692129629991
 30
0.0
 11
67.343364710000003
 21
-484.53692129629991
 31
0.0
  0
LINE
  5
1F6
  8
┌▓È_1
  6
BORDER
 62
     3
 10
37.34336471000001
 20
-572.03692129629985
 30
0.0
 11
72.343364710000003
 21
-572.03692129629985
 31
0.0
  0
INSERT
  5
1F8
  8
0
  6
CONTINUOUS
  2
*U64
 10
0.0
 20
0.0
 30
0.0
  0
INSERT
  5
1F9
  8
0
  6
CONTINUOUS
  2
*U65
 10
0.0
 20
0.0
 30
0.0
  0
INSERT
  5
1FA
  8
0
  6
CONTINUOUS
  2
*U66
 10
0.0
 20
0.0
 30
0.0
  0
INSERT
  5
1FB
  8
0
  6
CONTINUOUS
  2
*U67
 10
0.0
 20
0.0
 30
0.0
  0
INSERT
  5
1FC
  8
0
  6
CONTINUOUS
  2
*U68
 10
0.0
 20
0.0
 30
0.0
  0
INSERT
  5
1FD
  8
0
  6
CONTINUOUS
  2
*U69
 10
0.0
 20
0.0
 30
0.0
  0
INSERT
  5
1FE
  8
0
  6
CONTINUOUS
  2
*U70
 10
0.0
 20
0.0
 30
0.0
  0
INSERT
  5
1FF
  8
0
  6
CONTINUOUS
  2
*U71
 10
0.0
 20
0.0
 30
0.0
  0
INSERT
  5
200
  8
0
  6
CONTINUOUS
  2
*U72
 10
0.0
 20
0.0
 30
0.0
  0
LINE
  5
201
  8
┌▓È_1
  6
BORDER
 62
     3
 10
78.140677554199996
 20
-239.63755457799999
 30
0.0
 11
118.1406775542
 21
-239.63755457799999
 31
0.0
  0
LINE
  5
202
  8
┌▓È_1
  6
BORDER
 62
     3
 10
-58.153294495300003
 20
-227.14938422520001
 30
0.0
 11
-58.153294495300003
 21
-252.14938422520001
 31
0.0
  0
ARC
  5
203
  8
┌▓È_1
 62
     5
 10
-88.153294495300003
 20
-232.14938422520001
 30
0.0
 40
3.5
 50
270.0
 51
90.0
  0
ARC
  5
204
  8
┌▓È_1
 62
     5
 10
-103.1532944953
 20
-232.14938422520001
 30
0.0
 40
3.5
 50
90.0
 51
270.0
  0
CIRCLE
  5
205
  8
┌▓È_1
 62
     5
 10
-58.153294495300003
 20
-239.64938422520001
 30
0.0
 40
7.5
  0
LINE
  5
206
  8
┌▓È_1
 62
     5
 10
-140.6532944953
 20
-273.64938422519998
 30
0.0
 11
-125.6532944953
 21
-273.64938422519998
 31
0.0
  0
LINE
  5
207
  8
┌▓È_1
 62
     5
 10
-125.6532944953
 20
-280.64938422519998
 30
0.0
 11
-140.6532944953
 21
-280.64938422519998
 31
0.0
  0
ARC
  5
208
  8
┌▓È_1
 62
     5
 10
-140.6532944953
 20
-277.14938422519998
 30
0.0
 40
3.5
 50
90.0
 51
270.0
  0
ARC
  5
209
  8
┌▓È_1
 62
     5
 10
-125.6532944953
 20
-292.14938422519998
 30
0.0
 40
3.5
 50
270.0
 51
90.0
  0
CIRCLE
  5
20A
  8
┌▓È_1
 62
     5
 10
-127.3111124289
 20
-572.04061520129994
 30
0.0
 40
7.5
  0
LINE
  5
20B
  8
┌▓È_1
 62
     5
 10
-134.8111124289
 20
-508.0406152013
 30
0.0
 11
-119.8111124289
 21
-508.0406152013
 31
0.0
  0
LINE
  5
20C
  8
┌▓È_1
 62
     5
 10
-119.8111124289
 20
-628.04061520129994
 30
0.0
 11
-134.8111124289
 21
-628.04061520129994
 31
0.0
  0
LINE
  5
20D
  8
┌▓È_1
 62
     5
 10
-102.5611124289
 20
-484.53692129629991
 30
0.0
 11
-102.5611124289
 21
-482.53692129629991
 31
0.0
  0
LINE
  5
20E
  8
┌▓È_1
 62
     5
 10
-102.5611124289
 20
-484.53692129629991
 30
0.0
 11
-100.5611124289
 21
-484.53692129629991
 31
0.0
  0
ARC
  5
20F
  8
┌▓È_1
 62
     5
 10
-134.8111124289
 20
-504.5406152013
 30
0.0
 40
3.5
 50
90.0
 51
270.0
  0
LINE
  5
210
  8
┌▓È_1
  6
BORDER
 62
     3
 10
-16.635307165
 20
-572.03692129629985
 30
0.0
 11
8.3646928349999996
 21
-572.03692129629985
 31
0.0
  0
LINE
  5
211
  8
┌▓È_1
 62
     5
 10
3.364692835
 20
-482.53692129629991
 30
0.0
 11
3.364692835
 21
-484.53692129629991
 31
0.0
  0
LINE
  5
212
  8
┌▓È_1
 62
     5
 10
-8.6353071650000004
 20
-484.53692129629991
 30
0.0
 11
3.364692835
 21
-484.53692129629991
 31
0.0
  0
ARC
  5
213
  8
┌▓È_1
 62
     5
 10
-119.8111124289
 20
-504.5406152013
 30
0.0
 40
3.5
 50
270.0
 51
90.0
  0
LINE
  5
214
  8
┌▓È_1
 62
     5
 10
-119.8111124289
 20
-501.0406152013
 30
0.0
 11
-134.8111124289
 21
-501.0406152013
 31
0.0
  0
ARC
  5
215
  8
┌▓È_1
 62
     5
 10
-134.8111124289
 20
-609.54061520129994
 30
0.0
 40
3.5
 50
90.0
 51
270.0
  0
ARC
  5
216
  8
┌▓È_1
 62
     5
 10
-134.8111124289
 20
-519.54061520129994
 30
0.0
 40
3.5
 50
90.0
 51
270.0
  0
ARC
  5
217
  8
┌▓È_1
 62
     5
 10
-134.8111124289
 20
-534.54061520129994
 30
0.0
 40
3.5
 50
90.0
 51
270.0
  0
ARC
  5
218
  8
┌▓È_1
 62
     5
 10
-134.8111124289
 20
-624.54061520129994
 30
0.0
 40
3.5
 50
90.0
 51
270.0
  0
ARC
  5
219
  8
┌▓È_1
 62
     5
 10
-134.8111124289
 20
-639.54061520129994
 30
0.0
 40
3.5
 50
90.0
 51
270.0
  0
ARC
  5
21A
  8
┌▓È_1
 62
     5
 10
-119.8111124289
 20
-534.54061520129994
 30
0.0
 40
3.5
 50
270.0
 51
90.0
  0
ARC
  5
21B
  8
┌▓È_1
 62
     5
 10
-119.8111124289
 20
-609.54061520129994
 30
0.0
 40
3.5
 50
270.0
 51
90.0
  0
ARC
  5
21C
  8
┌▓È_1
 62
     5
 10
-119.8111124289
 20
-624.54061520129994
 30
0.0
 40
3.5
 50
270.0
 51
90.0
  0
ARC
  5
21D
  8
┌▓È_1
 62
     5
 10
-119.8111124289
 20
-519.54061520129994
 30
0.0
 40
3.5
 50
270.0
 51
90.0
  0
LINE
  5
21E
  8
┌▓È_1
 62
     5
 10
-134.8111124289
 20
-621.04061520129994
 30
0.0
 11
-119.8111124289
 21
-621.04061520129994
 31
0.0
  0
LINE
  5
21F
  8
┌▓È_1
 62
     5
 10
-119.8111124289
 20
-643.04061520129994
 30
0.0
 11
-134.8111124289
 21
-643.04061520129994
 31
0.0
  0
LINE
  5
220
  8
┌▓È_1
 62
     5
 10
-134.8111124289
 20
-636.04061520129994
 30
0.0
 11
-119.8111124289
 21
-636.04061520129994
 31
0.0
  0
LINE
  5
221
  8
┌▓È_1
 62
     5
 10
-119.8111124289
 20
-531.04061520129994
 30
0.0
 11
-134.8111124289
 21
-531.04061520129994
 31
0.0
  0
LINE
  5
222
  8
┌▓È_1
 62
     5
 10
-134.8111124289
 20
-538.04061520129994
 30
0.0
 11
-119.8111124289
 21
-538.04061520129994
 31
0.0
  0
LINE
  5
223
  8
┌▓È_1
 62
     5
 10
46.343364710000003
 20
-661.53692129629985
 30
0.0
 11
67.343364710000003
 21
-661.53692129629985
 31
0.0
  0
LINE
  5
224
  8
┌▓È_1
 62
     5
 10
67.343364710000003
 20
-659.53692129629985
 30
0.0
 11
67.343364710000003
 21
-661.53692129629985
 31
0.0
  0
LINE
  5
225
  8
┌▓È_1
 62
     5
 10
-8.6353068085999993
 20
-661.53692129629985
 30
0.0
 11
3.364692835
 21
-661.53692129629985
 31
0.0
  0
LINE
  5
226
  8
┌▓È_1
 62
     5
 10
3.364692835
 20
-661.53692129629985
 30
0.0
 11
3.364692835
 21
-659.53692129629985
 31
0.0
  0
ARC
  5
227
  8
┌▓È_1
 62
     5
 10
-8.6353071650000004
 20
-659.53692129629985
 30
0.0
 40
2.0
 50
180.0
 51
270.00001020809998
  0
ARC
  5
228
  8
┌▓È_1
 62
     5
 10
-102.5611124289
 20
-743.68037180919998
 30
0.0
 40
2.0
 50
0.0
 51
90.000038655400004
  0
LINE
  5
229
  8
┌▓È_1
 62
     5
 10
-102.5611124289
 20
-659.53692129629985
 30
0.0
 11
-100.5611124289
 21
-659.53692129629985
 31
0.0
  0
LINE
  5
22A
  8
┌▓È_1
 62
     5
 10
-102.5611124289
 20
-743.68037180919998
 30
0.0
 11
-102.5611124289
 21
-755.68037180919987
 31
0.0
  0
LINE
  5
22B
  8
┌▓È_1
 62
     5
 10
-100.5611124289
 20
-743.68037180919998
 30
0.0
 11
-100.5611124289
 21
-755.68037180919987
 31
0.0
  0
LINE
  5
22C
  8
┌▓È_1
 62
     5
 10
-100.5611124289
 20
-755.68037180919987
 30
0.0
 11
-102.5611124289
 21
-755.68037180919987
 31
0.0
  0
LINE
  5
22D
  8
┌▓È_1
 62
     5
 10
-8.6353071650000004
 20
-659.53692129629985
 30
0.0
 11
3.364692835
 21
-659.53692129629985
 31
0.0
  0
LINE
  5
22E
  8
┌▓È_1
 62
     5
 10
46.343364710000003
 20
-659.53692129629985
 30
0.0
 11
67.343364710000003
 21
-659.53692129629985
 31
0.0
  0
DIMENSION
  5
23D
  8
Éíû@É³
  2
*D19
 10
67.343364710000003
 20
-460.45202520869998
 30
0.0
 11
55.843364710000003
 21
-460.45202520869998
 31
0.0
 70
   128
  1
<>
 13
67.343364710000003
 23
-482.53692129629991
 33
0.0
 14
44.343364710000003
 24
-484.53692129629991
 34
0.0
  0
DIMENSION
  5
24C
  8
Éíû@É³
  2
*D20
 10
3.364692835
 20
-460.45202520869998
 30
0.0
 11
-3.6353071649999991
 21
-460.45202520869998
 31
0.0
 70
   128
  1
<>
 13
3.364692835
 23
-482.53692129629991
 33
0.0
 14
-10.635307165
 24
-484.53692264559987
 34
0.0
  0
DIMENSION
  5
25B
  8
Éíû@É³
  2
*D21
 10
-64.065506960099995
 20
-624.54061520129994
 30
0.0
 11
-64.065506960099995
 21
-617.04061520129994
 31
0.0
 70
   128
  1
<>
 13
-116.3111124289
 23
-624.54061520129994
 33
0.0
 14
-116.3111124289
 24
-609.54061520129994
 34
0.0
 50
90.0
  0
DIMENSION
  5
26A
  8
Éíû@É³
  2
*D22
 10
-64.065506960099995
 20
-639.54061520129994
 30
0.0
 11
-64.065506960099995
 21
-632.04061520129994
 31
0.0
 70
   128
  1
<>
 13
-116.3111124289
 23
-639.54061520129994
 33
0.0
 14
-116.3111124289
 24
-624.54061520129994
 34
0.0
 50
90.0
  0
DIMENSION
  5
279
  8
Éíû@É³
  2
*D23
 10
-64.065506960099995
 20
-519.54061520129994
 30
0.0
 11
-64.065506960099995
 21
-512.04061520129994
 31
0.0
 70
   128
  1
<>
 13
-116.3111124289
 23
-519.54061520129994
 33
0.0
 14
-116.3111124289
 24
-504.5406152013
 34
0.0
 50
90.0
  0
DIMENSION
  5
288
  8
Éíû@É³
  2
*D24
 10
-64.065506960099995
 20
-534.54061520129994
 30
0.0
 11
-64.065506960099995
 21
-527.04061520129994
 31
0.0
 70
   128
  1
<>
 13
-116.3111124289
 23
-534.54061520129994
 33
0.0
 14
-116.3111124289
 24
-519.54061520129994
 34
0.0
 50
90.0
  0
DIMENSION
  5
297
  8
Éíû@É³
  2
*D25
 10
-64.065506960099995
 20
-504.5406152013
 30
0.0
 11
-64.065506960099995
 21
-493.5387682487999
 31
0.0
 70
   128
  1
22
 13
-116.3111124289
 23
-504.5406152013
 33
0.0
 14
-102.5611124289
 24
-482.53692129629991
 34
0.0
 50
90.0
  0
LINE
  5
298
  8
┌▓È_1
 62
     5
 10
-119.8111124289
 20
-613.04061520129994
 30
0.0
 11
-134.8111124289
 21
-613.04061520129994
 31
0.0
  0
LINE
  5
299
  8
┌▓È_1
 62
     5
 10
-134.8111124289
 20
-606.04061520129994
 30
0.0
 11
-119.8111124289
 21
-606.04061520129994
 31
0.0
  0
LINE
  5
29A
  8
┌▓È_1
 62
     5
 10
-119.8111124289
 20
-516.04061520129994
 30
0.0
 11
-134.8111124289
 21
-516.04061520129994
 31
0.0
  0
LINE
  5
29B
  8
┌▓È_1
  6
BORDER
 62
     3
 10
-127.3111124289
 20
-559.54061520129994
 30
0.0
 11
-127.3111124289
 21
-584.54061520129994
 31
0.0
  0
ARC
  5
29C
  8
┌▓È_1
 62
     5
 10
-119.8111124289
 20
-639.54061520129994
 30
0.0
 40
3.5
 50
270.0
 51
90.0
  0
LINE
  5
29D
  8
┌▓È_1
 62
     5
 10
-134.8111124289
 20
-523.04061520129994
 30
0.0
 11
-119.8111124289
 21
-523.04061520129994
 31
0.0
  0
ARC
  5
29E
  8
┌▓È_1
 62
     5
 10
-440.65329449529992
 20
-187.14938422520001
 30
0.0
 40
3.5
 50
90.0
 51
270.0
  0
LINE
  5
29F
  8
┌▓È_1
 62
     5
 10
-440.65329449529992
 20
-190.64938422520001
 30
0.0
 11
-425.65329449529992
 21
-190.64938422520001
 31
0.0
  0
ARC
  5
2A0
  8
┌▓È_1
 62
     5
 10
-365.65329449529997
 20
-202.14938422520001
 30
0.0
 40
3.5
 50
90.0
 51
270.0
  0
ARC
  5
2A1
  8
┌▓È_1
 62
     5
 10
-425.65329449529992
 20
-202.14938422520001
 30
0.0
 40
3.5
 50
270.0
 51
90.0
  0
LINE
  5
2A2
  8
┌▓È_1
 62
     5
 10
-440.65329449529992
 20
-205.64938422520001
 30
0.0
 11
-425.65329449529992
 21
-205.64938422520001
 31
0.0
  0
LINE
  5
2A3
  8
┌▓È_1
 62
     5
 10
-425.65329449529992
 20
-198.64938422520001
 30
0.0
 11
-440.65329449529992
 21
-198.64938422520001
 31
0.0
  0
ARC
  5
2A4
  8
┌▓È_1
 62
     5
 10
-440.65329449529992
 20
-202.14938422520001
 30
0.0
 40
3.5
 50
90.0
 51
270.0
  0
ARC
  5
2A5
  8
┌▓È_1
 62
     5
 10
-365.65329449529997
 20
-172.14938422520001
 30
0.0
 40
3.5
 50
90.0
 51
270.0
  0
ARC
  5
2A6
  8
┌▓È_1
 62
     5
 10
-350.65329449529997
 20
-187.14938422520001
 30
0.0
 40
3.5
 50
270.0
 51
90.0
  0
ARC
  5
2A7
  8
┌▓È_1
 62
     5
 10
-350.65329449529997
 20
-202.14938422520001
 30
0.0
 40
3.5
 50
270.0
 51
90.0
  0
ARC
  5
2A8
  8
┌▓È_1
 62
     5
 10
-350.65329449529997
 20
-172.14938422520001
 30
0.0
 40
3.5
 50
270.0
 51
90.0
  0
LINE
  5
2A9
  8
┌▓È_1
 62
     5
 10
-350.65329449529997
 20
-168.64938422520001
 30
0.0
 11
-365.65329449529997
 21
-168.64938422520001
 31
0.0
  0
LINE
  5
2AA
  8
┌▓È_1
 62
     5
 10
-365.65329449529997
 20
-175.64938422520001
 30
0.0
 11
-350.65329449529997
 21
-175.64938422520001
 31
0.0
  0
ARC
  5
2AB
  8
┌▓È_1
 62
     5
 10
-425.65329449529992
 20
-187.14938422520001
 30
0.0
 40
3.5
 50
270.0
 51
90.0
  0
ARC
  5
2AC
  8
┌▓È_1
 62
     5
 10
-365.65329449529997
 20
-187.14938422520001
 30
0.0
 40
3.5
 50
90.0
 51
270.0
  0
INSERT
  5
2AD
  8
0
  6
CONTINUOUS
  2
*U73
 10
0.0
 20
0.0
 30
0.0
  0
INSERT
  5
2AE
  8
0
  6
CONTINUOUS
  2
*U74
 10
0.0
 20
0.0
 30
0.0
  0
INSERT
  5
2AF
  8
0
  6
CONTINUOUS
  2
*U75
 10
0.0
 20
0.0
 30
0.0
  0
INSERT
  5
2B0
  8
0
  6
CONTINUOUS
  2
*U76
 10
0.0
 20
0.0
 30
0.0
  0
INSERT
  5
2B1
  8
0
  6
CONTINUOUS
  2
*U77
 10
0.0
 20
0.0
 30
0.0
  0
INSERT
  5
2B2
  8
0
  6
CONTINUOUS
  2
*U78
 10
0.0
 20
0.0
 30
0.0
  0
INSERT
  5
2B3
  8
0
  6
CONTINUOUS
  2
*U79
 10
0.0
 20
0.0
 30
0.0
  0
INSERT
  5
2B4
  8
0
  6
CONTINUOUS
  2
*U80
 10
0.0
 20
0.0
 30
0.0
  0
LINE
  5
2B5
  8
┌▓È_1
 62
     5
 10
-102.5611124289
 20
-659.53692129629985
 30
0.0
 11
-102.5611124289
 21
-661.53692129629985
 31
0.0
  0
ARC
  5
2B6
  8
┌▓È_1
 62
     5
 10
46.343364710000003
 20
-659.53692129629985
 30
0.0
 40
2.0
 50
180.0
 51
270.0
  0
LINE
  5
2B7
  8
┌▓È_1
 62
     5
 10
-275.65329449529997
 20
-168.64938422520001
 30
0.0
 11
-290.65329449529997
 21
-168.64938422520001
 31
0.0
  0
LINE
  5
2B8
  8
┌▓È_1
 62
     5
 10
-290.65329449529997
 20
-175.64938422520001
 30
0.0
 11
-275.65329449529997
 21
-175.64938422520001
 31
0.0
  0
ARC
  5
2B9
  8
┌▓È_1
 62
     5
 10
-215.6532944953
 20
-172.14938422520001
 30
0.0
 40
3.5
 50
90.0
 51
270.0
  0
LINE
  5
2BA
  8
┌▓È_1
 62
     5
 10
-200.6532944953
 20
-183.64938422520001
 30
0.0
 11
-215.6532944953
 21
-183.64938422520001
 31
0.0
  0
LINE
  5
2BB
  8
┌▓È_1
 62
     5
 10
-215.6532944953
 20
-205.64938422520001
 30
0.0
 11
-200.6532944953
 21
-205.64938422520001
 31
0.0
  0
LINE
  5
2BC
  8
┌▓È_1
 62
     5
 10
-200.6532944953
 20
-198.64938422520001
 30
0.0
 11
-215.6532944953
 21
-198.64938422520001
 31
0.0
  0
LINE
  5
2BD
  8
┌▓È_1
 62
     5
 10
-215.6532944953
 20
-190.64938422520001
 30
0.0
 11
-200.6532944953
 21
-190.64938422520001
 31
0.0
  0
LINE
  5
2BE
  8
┌▓È_1
 62
     5
 10
-215.6532944953
 20
-175.64938422520001
 30
0.0
 11
-200.6532944953
 21
-175.64938422520001
 31
0.0
  0
LINE
  5
2BF
  8
┌▓È_1
 62
     5
 10
-200.6532944953
 20
-168.64938422520001
 30
0.0
 11
-215.6532944953
 21
-168.64938422520001
 31
0.0
  0
ARC
  5
2C0
  8
┌▓È_1
 62
     5
 10
-200.6532944953
 20
-202.14938422520001
 30
0.0
 40
3.5
 50
270.0
 51
90.0
  0
ARC
  5
2C1
  8
┌▓È_1
 62
     5
 10
-200.6532944953
 20
-187.14938422520001
 30
0.0
 40
3.5
 50
270.0
 51
90.0
  0
ARC
  5
2C2
  8
┌▓È_1
 62
     5
 10
-200.6532944953
 20
-172.14938422520001
 30
0.0
 40
3.5
 50
270.0
 51
90.0
  0
ARC
  5
2C3
  8
┌▓È_1
 62
     5
 10
-290.65329449529997
 20
-202.14938422520001
 30
0.0
 40
3.5
 50
90.0
 51
270.0
  0
ARC
  5
2C4
  8
┌▓È_1
 62
     5
 10
-290.65329449529997
 20
-187.14938422520001
 30
0.0
 40
3.5
 50
90.0
 51
270.0
  0
LINE
  5
2C5
  8
┌▓È_1
 62
     5
 10
-290.65329449529997
 20
-205.64938422520001
 30
0.0
 11
-275.65329449529997
 21
-205.64938422520001
 31
0.0
  0
LINE
  5
2C6
  8
┌▓È_1
 62
     5
 10
-275.65329449529997
 20
-198.64938422520001
 30
0.0
 11
-290.65329449529997
 21
-198.64938422520001
 31
0.0
  0
LINE
  5
2C7
  8
┌▓È_1
 62
     5
 10
-365.65329449529997
 20
-190.64938422520001
 30
0.0
 11
-350.65329449529997
 21
-190.64938422520001
 31
0.0
  0
LINE
  5
2C8
  8
┌▓È_1
 62
     5
 10
-350.65329449529997
 20
-183.64938422520001
 30
0.0
 11
-365.65329449529997
 21
-183.64938422520001
 31
0.0
  0
LINE
  5
2C9
  8
┌▓È_1
 62
     5
 10
-365.65329449529997
 20
-205.64938422520001
 30
0.0
 11
-350.65329449529997
 21
-205.64938422520001
 31
0.0
  0
LINE
  5
2CA
  8
┌▓È_1
 62
     5
 10
-350.65329449529997
 20
-198.64938422520001
 30
0.0
 11
-365.65329449529997
 21
-198.64938422520001
 31
0.0
  0
LINE
  5
2CB
  8
┌▓È_1
 62
     5
 10
-425.65329449529992
 20
-168.64938422520001
 30
0.0
 11
-440.65329449529992
 21
-168.64938422520001
 31
0.0
  0
ARC
  5
2CC
  8
┌▓È_1
 62
     5
 10
-425.65329449529992
 20
-172.14938422520001
 30
0.0
 40
3.5
 50
270.0
 51
90.0
  0
ARC
  5
2CD
  8
┌▓È_1
 62
     5
 10
-440.65329449529992
 20
-172.14938422520001
 30
0.0
 40
3.5
 50
90.0
 51
270.0
  0
LINE
  5
2CE
  8
┌▓È_1
 62
     5
 10
-440.65329449529992
 20
-175.64938422520001
 30
0.0
 11
-425.65329449529992
 21
-175.64938422520001
 31
0.0
  0
LINE
  5
2CF
  8
┌▓È_1
 62
     5
 10
-425.65329449529992
 20
-183.64938422520001
 30
0.0
 11
-440.65329449529992
 21
-183.64938422520001
 31
0.0
  0
LINE
  5
2D0
  8
┌▓È_1
 62
     5
 10
-365.65329449529997
 20
-273.64938422519998
 30
0.0
 11
-350.65329449529997
 21
-273.64938422519998
 31
0.0
  0
LINE
  5
2D1
  8
┌▓È_1
 62
     5
 10
-328.15329449529997
 20
-250.64938422520001
 30
0.0
 11
-313.15329449529997
 21
-250.64938422520001
 31
0.0
  0
LINE
  5
2D2
  8
┌▓È_1
 62
     5
 10
-313.15329449529997
 20
-243.64938422520001
 30
0.0
 11
-328.15329449529997
 21
-243.64938422520001
 31
0.0
  0
ARC
  5
2D3
  8
┌▓È_1
 62
     5
 10
-313.15329449529997
 20
-247.14938422520001
 30
0.0
 40
3.5
 50
270.0
 51
90.0
  0
ARC
  5
2D4
  8
┌▓È_1
 62
     5
 10
-328.15329449529997
 20
-247.14938422520001
 30
0.0
 40
3.5
 50
90.0
 51
270.0
  0
ARC
  5
2D5
  8
┌▓È_1
 62
     5
 10
-388.15329449529997
 20
-247.14938422520001
 30
0.0
 40
3.5
 50
270.0
 51
90.0
  0
LINE
  5
2D6
  8
┌▓È_1
 62
     5
 10
-403.15329449529992
 20
-250.64938422520001
 30
0.0
 11
-388.15329449529997
 21
-250.64938422520001
 31
0.0
  0
LINE
  5
2D7
  8
┌▓È_1
 62
     5
 10
-388.15329449529997
 20
-243.64938422520001
 30
0.0
 11
-403.15329449529992
 21
-243.64938422520001
 31
0.0
  0
ARC
  5
2D8
  8
┌▓È_1
 62
     5
 10
-403.15329449529992
 20
-247.14938422520001
 30
0.0
 40
3.5
 50
90.0
 51
270.0
  0
LINE
  5
2D9
  8
┌▓È_1
 62
     5
 10
-350.65329449529997
 20
-280.64938422519998
 30
0.0
 11
-365.65329449529997
 21
-280.64938422519998
 31
0.0
  0
LINE
  5
2DA
  8
┌▓È_1
 62
     5
 10
-350.65329449529997
 20
-295.64938422519998
 30
0.0
 11
-365.65329449529997
 21
-295.64938422519998
 31
0.0
  0
LINE
  5
2DB
  8
┌▓È_1
  6
BORDER
 62
     3
 10
-320.6529449606
 20
-389.69754862389999
 30
0.0
 11
-320.6529449606
 21
-429.69754862389988
 31
0.0
  0
LINE
  5
2DC
  8
┌▓È_1
 62
     5
 10
-215.6532944953
 20
-303.64938422519998
 30
0.0
 11
-200.6532944953
 21
-303.64938422519998
 31
0.0
  0
LINE
  5
2DD
  8
┌▓È_1
 62
     5
 10
-403.15329449529992
 20
-235.64938422520001
 30
0.0
 11
-388.15329449529997
 21
-235.64938422520001
 31
0.0
  0
LINE
  5
2DE
  8
┌▓È_1
 62
     5
 10
-328.15329449529997
 20
-235.64938422520001
 30
0.0
 11
-313.15329449529997
 21
-235.64938422520001
 31
0.0
  0
LINE
  5
2DF
  8
┌▓È_1
 62
     5
 10
-388.15329449529997
 20
-228.64938422520001
 30
0.0
 11
-403.15329449529992
 21
-228.64938422520001
 31
0.0
  0
LINE
  5
2E0
  8
┌▓È_1
 62
     5
 10
-313.15329449529997
 20
-228.64938422520001
 30
0.0
 11
-328.15329449529997
 21
-228.64938422520001
 31
0.0
  0
LINE
  5
2E1
  8
┌▓È_1
 62
     5
 10
-290.65329449529997
 20
-190.64938422520001
 30
0.0
 11
-275.65329449529997
 21
-190.64938422520001
 31
0.0
  0
LINE
  5
2E2
  8
┌▓È_1
 62
     5
 10
-275.65329449529997
 20
-183.64938422520001
 30
0.0
 11
-290.65329449529997
 21
-183.64938422520001
 31
0.0
  0
ARC
  5
2E3
  8
┌▓È_1
 62
     5
 10
-215.6532944953
 20
-187.14938422520001
 30
0.0
 40
3.5
 50
90.0
 51
270.0
  0
ARC
  5
2E4
  8
┌▓È_1
 62
     5
 10
-215.6532944953
 20
-202.14938422520001
 30
0.0
 40
3.5
 50
90.0
 51
270.0
  0
ARC
  5
2E5
  8
┌▓È_1
 62
     5
 10
-275.65329449529997
 20
-202.14938422520001
 30
0.0
 40
3.5
 50
270.0
 51
90.0
  0
ARC
  5
2E6
  8
┌▓È_1
 62
     5
 10
-275.65329449529997
 20
-187.14938422520001
 30
0.0
 40
3.5
 50
270.0
 51
90.0
  0
ARC
  5
2E7
  8
┌▓È_1
 62
     5
 10
-275.65329449529997
 20
-172.14938422520001
 30
0.0
 40
3.5
 50
270.0
 51
90.0
  0
ARC
  5
2E8
  8
┌▓È_1
 62
     5
 10
-290.65329449529997
 20
-172.14938422520001
 30
0.0
 40
3.5
 50
90.0
 51
270.0
  0
ARC
  5
2E9
  8
┌▓È_1
 62
     5
 10
-275.65329449529997
 20
-307.14938422519998
 30
0.0
 40
3.5
 50
270.0
 51
90.0
  0
LINE
  5
2EA
  8
┌▓È_1
 62
     5
 10
-275.65329449529997
 20
-310.64938422519998
 30
0.0
 11
-290.65329449529997
 21
-310.64938422519998
 31
0.0
  0
LINE
  5
2EB
  8
┌▓È_1
 62
     5
 10
-200.6532944953
 20
-310.64938422519998
 30
0.0
 11
-215.6532944953
 21
-310.64938422519998
 31
0.0
  0
ARC
  5
2EC
  8
┌▓È_1
 62
     5
 10
-200.6532944953
 20
-307.14938422519998
 30
0.0
 40
3.5
 50
270.0
 51
90.0
  0
ARC
  5
2ED
  8
┌▓È_1
 62
     5
 10
-350.65329449529997
 20
-292.14938422519998
 30
0.0
 40
3.5
 50
270.0
 51
90.0
  0
ARC
  5
2EE
  8
┌▓È_1
 62
     5
 10
-350.65329449529997
 20
-277.14938422519998
 30
0.0
 40
3.5
 50
270.0
 51
90.0
  0
ARC
  5
2EF
  8
┌▓È_1
 62
     5
 10
-350.65329449529997
 20
-307.14938422519998
 30
0.0
 40
3.5
 50
270.0
 51
90.0
  0
ARC
  5
2F0
  8
┌▓È_1
 62
     5
 10
-440.65329449529992
 20
-292.14938422519998
 30
0.0
 40
3.5
 50
90.0
 51
270.0
  0
ARC
  5
2F1
  8
┌▓È_1
 62
     5
 10
-425.65329449529992
 20
-277.14938422519998
 30
0.0
 40
3.5
 50
270.0
 51
90.0
  0
LINE
  5
2F2
  8
┌▓È_1
 62
     5
 10
-440.65329449529992
 20
-273.64938422519998
 30
0.0
 11
-425.65329449529992
 21
-273.64938422519998
 31
0.0
  0
LINE
  5
2F3
  8
┌▓È_1
 62
     5
 10
-425.65329449529992
 20
-280.64938422519998
 30
0.0
 11
-440.65329449529992
 21
-280.64938422519998
 31
0.0
  0
ARC
  5
2F4
  8
┌▓È_1
 62
     5
 10
-440.65329449529992
 20
-277.14938422519998
 30
0.0
 40
3.5
 50
90.0
 51
270.0
  0
ARC
  5
2F5
  8
┌▓È_1
 62
     5
 10
-365.65329449529997
 20
-307.14938422519998
 30
0.0
 40
3.5
 50
90.0
 51
270.0
  0
ARC
  5
2F6
  8
┌▓È_1
 62
     5
 10
-425.65329449529992
 20
-307.14938422519998
 30
0.0
 40
3.5
 50
270.0
 51
90.0
  0
LINE
  5
2F7
  8
┌▓È_1
 62
     5
 10
-440.65329449529992
 20
-303.64938422519998
 30
0.0
 11
-425.65329449529992
 21
-303.64938422519998
 31
0.0
  0
LINE
  5
2F8
  8
┌▓È_1
 62
     5
 10
-425.65329449529992
 20
-310.64938422519998
 30
0.0
 11
-440.65329449529992
 21
-310.64938422519998
 31
0.0
  0
ARC
  5
2F9
  8
┌▓È_1
 62
     5
 10
-440.65329449529992
 20
-307.14938422519998
 30
0.0
 40
3.5
 50
90.0
 51
270.0
  0
ARC
  5
2FA
  8
┌▓È_1
 62
     5
 10
-365.65329449529997
 20
-277.14938422519998
 30
0.0
 40
3.5
 50
90.0
 51
270.0
  0
ARC
  5
2FB
  8
┌▓È_1
 62
     5
 10
-365.65329449529997
 20
-292.14938422519998
 30
0.0
 40
3.5
 50
90.0
 51
270.0
  0
ARC
  5
2FC
  8
┌▓È_1
 62
     5
 10
-425.65329449529992
 20
-292.14938422519998
 30
0.0
 40
3.5
 50
270.0
 51
90.0
  0
LINE
  5
2FD
  8
┌▓È_1
 62
     5
 10
-440.65329449529992
 20
-288.64938422519998
 30
0.0
 11
-425.65329449529992
 21
-288.64938422519998
 31
0.0
  0
LINE
  5
2FE
  8
┌▓È_1
 62
     5
 10
-425.65329449529992
 20
-295.64938422519998
 30
0.0
 11
-440.65329449529992
 21
-295.64938422519998
 31
0.0
  0
LINE
  5
2FF
  8
┌▓È_1
 62
     5
 10
-365.65329449529997
 20
-303.64938422519998
 30
0.0
 11
-350.65329449529997
 21
-303.64938422519998
 31
0.0
  0
LINE
  5
300
  8
┌▓È_1
 62
     5
 10
-350.65329449529997
 20
-310.64938422519998
 30
0.0
 11
-365.65329449529997
 21
-310.64938422519998
 31
0.0
  0
LINE
  5
301
  8
┌▓È_1
 62
     5
 10
-365.65329449529997
 20
-288.64938422519998
 30
0.0
 11
-350.65329449529997
 21
-288.64938422519998
 31
0.0
  0
LINE
  5
302
  8
┌▓È_1
 62
     5
 10
-215.6532944953
 20
-288.64938422519998
 30
0.0
 11
-200.6532944953
 21
-288.64938422519998
 31
0.0
  0
LINE
  5
303
  8
┌▓È_1
 62
     5
 10
-200.6532944953
 20
-295.64938422519998
 30
0.0
 11
-215.6532944953
 21
-295.64938422519998
 31
0.0
  0
LINE
  5
304
  8
┌▓È_1
 62
     5
 10
-215.6532944953
 20
-273.64938422519998
 30
0.0
 11
-200.6532944953
 21
-273.64938422519998
 31
0.0
  0
ARC
  5
305
  8
┌▓È_1
 62
     5
 10
-200.6532944953
 20
-292.14938422519998
 30
0.0
 40
3.5
 50
270.0
 51
90.0
  0
ARC
  5
306
  8
┌▓È_1
 62
     5
 10
-200.6532944953
 20
-277.14938422519998
 30
0.0
 40
3.5
 50
270.0
 51
90.0
  0
LINE
  5
307
  8
┌▓È_1
 62
     5
 10
-253.1532944953
 20
-235.64938422520001
 30
0.0
 11
-238.1532944953
 21
-235.64938422520001
 31
0.0
  0
ARC
  5
308
  8
┌▓È_1
 62
     5
 10
-163.1532944953
 20
-247.14938422520001
 30
0.0
 40
3.5
 50
270.0
 51
90.0
  0
LINE
  5
309
  8
┌▓È_1
 62
     5
 10
-178.15329449529989
 20
-250.64938422520001
 30
0.0
 11
-163.1532944953
 21
-250.64938422520001
 31
0.0
  0
LINE
  5
30A
  8
┌▓È_1
 62
     5
 10
-163.1532944953
 20
-243.64938422520001
 30
0.0
 11
-178.15329449529989
 21
-243.64938422520001
 31
0.0
  0
ARC
  5
30B
  8
┌▓È_1
 62
     5
 10
-178.15329449529989
 20
-247.14938422520001
 30
0.0
 40
3.5
 50
90.0
 51
270.0
  0
ARC
  5
30C
  8
┌▓È_1
 62
     5
 10
-238.1532944953
 20
-247.14938422520001
 30
0.0
 40
3.5
 50
270.0
 51
90.0
  0
ARC
  5
30D
  8
┌▓È_1
 62
     5
 10
-253.1532944953
 20
-247.14938422520001
 30
0.0
 40
3.5
 50
90.0
 51
270.0
  0
LINE
  5
30E
  8
┌▓È_1
 62
     5
 10
-238.1532944953
 20
-243.64938422520001
 30
0.0
 11
-253.1532944953
 21
-243.64938422520001
 31
0.0
  0
LINE
  5
30F
  8
┌▓È_1
 62
     5
 10
-253.1532944953
 20
-250.64938422520001
 30
0.0
 11
-238.1532944953
 21
-250.64938422520001
 31
0.0
  0
LINE
  5
310
  8
┌▓È_1
 62
     5
 10
-200.6532944953
 20
-280.64938422519998
 30
0.0
 11
-215.6532944953
 21
-280.64938422519998
 31
0.0
  0
LINE
  5
311
  8
┌▓È_1
 62
     5
 10
-178.15329449529989
 20
-235.64938422520001
 30
0.0
 11
-163.1532944953
 21
-235.64938422520001
 31
0.0
  0
LINE
  5
312
  8
┌▓È_1
 62
     5
 10
-238.1532944953
 20
-228.64938422520001
 30
0.0
 11
-253.1532944953
 21
-228.64938422520001
 31
0.0
  0
LINE
  5
313
  8
┌▓È_1
 62
     5
 10
-163.1532944953
 20
-228.64938422520001
 30
0.0
 11
-178.15329449529989
 21
-228.64938422520001
 31
0.0
  0
ARC
  5
314
  8
┌▓È_1
 62
     5
 10
-388.15329449529997
 20
-232.14938422520001
 30
0.0
 40
3.5
 50
270.0
 51
90.0
  0
ARC
  5
315
  8
┌▓È_1
 62
     5
 10
-403.15329449529992
 20
-232.14938422520001
 30
0.0
 40
3.5
 50
90.0
 51
270.0
  0
ARC
  5
316
  8
┌▓È_1
 62
     5
 10
-313.15329449529997
 20
-232.14938422520001
 30
0.0
 40
3.5
 50
270.0
 51
90.0
  0
ARC
  5
317
  8
┌▓È_1
 62
     5
 10
-328.15329449529997
 20
-232.14938422520001
 30
0.0
 40
3.5
 50
90.0
 51
270.0
  0
ARC
  5
318
  8
┌▓È_1
 62
     5
 10
-290.65329449529997
 20
-307.14938422519998
 30
0.0
 40
3.5
 50
90.0
 51
270.0
  0
LINE
  5
319
  8
┌▓È_1
 62
     5
 10
-290.65329449529997
 20
-303.64938422519998
 30
0.0
 11
-275.65329449529997
 21
-303.64938422519998
 31
0.0
  0
ARC
  5
31A
  8
┌▓È_1
 62
     5
 10
-215.6532944953
 20
-307.14938422519998
 30
0.0
 40
3.5
 50
90.0
 51
270.0
  0
LINE
  5
31B
  8
┌▓È_1
 62
     5
 10
-590.65329449529986
 20
-190.64938422520001
 30
0.0
 11
-575.65329449529997
 21
-190.64938422520001
 31
0.0
  0
LINE
  5
31C
  8
┌▓È_1
 62
     5
 10
-575.65329449529997
 20
-183.64938422520001
 30
0.0
 11
-590.65329449529986
 21
-183.64938422520001
 31
0.0
  0
LINE
  5
31D
  8
┌▓È_1
 62
     5
 10
-515.65329449529986
 20
-205.64938422520001
 30
0.0
 11
-500.65329449529997
 21
-205.64938422520001
 31
0.0
  0
LINE
  5
31E
  8
┌▓È_1
 62
     5
 10
-500.65329449529997
 20
-198.64938422520001
 30
0.0
 11
-515.65329449529986
 21
-198.64938422520001
 31
0.0
  0
LINE
  5
31F
  8
┌▓È_1
 62
     5
 10
-515.65329449529986
 20
-175.64938422520001
 30
0.0
 11
-500.65329449529997
 21
-175.64938422520001
 31
0.0
  0
LINE
  5
320
  8
┌▓È_1
 62
     5
 10
-500.65329449529997
 20
-168.64938422520001
 30
0.0
 11
-515.65329449529986
 21
-168.64938422520001
 31
0.0
  0
LINE
  5
321
  8
┌▓È_1
 62
     5
 10
-515.65329449529986
 20
-190.64938422520001
 30
0.0
 11
-500.65329449529997
 21
-190.64938422520001
 31
0.0
  0
LINE
  5
322
  8
┌▓È_1
 62
     5
 10
-500.65329449529997
 20
-183.64938422520001
 30
0.0
 11
-515.65329449529986
 21
-183.64938422520001
 31
0.0
  0
ARC
  5
323
  8
┌▓È_1
 62
     5
 10
-500.65329449529997
 20
-172.14938422520001
 30
0.0
 40
3.5
 50
270.0
 51
90.0
  0
ARC
  5
324
  8
┌▓È_1
 62
     5
 10
-500.65329449529997
 20
-202.14938422520001
 30
0.0
 40
3.5
 50
270.0
 51
90.0
  0
ARC
  5
325
  8
┌▓È_1
 62
     5
 10
-500.65329449529997
 20
-187.14938422520001
 30
0.0
 40
3.5
 50
270.0
 51
90.0
  0
ARC
  5
326
  8
┌▓È_1
 62
     5
 10
-163.1532944953
 20
-232.14938422520001
 30
0.0
 40
3.5
 50
270.0
 51
90.0
  0
ARC
  5
327
  8
┌▓È_1
 62
     5
 10
-238.1532944953
 20
-232.14938422520001
 30
0.0
 40
3.5
 50
270.0
 51
90.0
  0
ARC
  5
328
  8
┌▓È_1
 62
     5
 10
-253.1532944953
 20
-232.14938422520001
 30
0.0
 40
3.5
 50
90.0
 51
270.0
  0
ARC
  5
329
  8
┌▓È_1
 62
     5
 10
-178.15329449529989
 20
-232.14938422520001
 30
0.0
 40
3.5
 50
90.0
 51
270.0
  0
ARC
  5
32A
  8
┌▓È_1
 62
     5
 10
-290.65329449529997
 20
-277.14938422519998
 30
0.0
 40
3.5
 50
90.0
 51
270.0
  0
LINE
  5
32B
  8
┌▓È_1
 62
     5
 10
-290.65329449529997
 20
-288.64938422519998
 30
0.0
 11
-275.65329449529997
 21
-288.64938422519998
 31
0.0
  0
LINE
  5
32C
  8
┌▓È_1
 62
     5
 10
-275.65329449529997
 20
-295.64938422519998
 30
0.0
 11
-290.65329449529997
 21
-295.64938422519998
 31
0.0
  0
LINE
  5
32D
  8
┌▓È_1
 62
     5
 10
-290.65329449529997
 20
-273.64938422519998
 30
0.0
 11
-275.65329449529997
 21
-273.64938422519998
 31
0.0
  0
LINE
  5
32E
  8
┌▓È_1
 62
     5
 10
-275.65329449529997
 20
-280.64938422519998
 30
0.0
 11
-290.65329449529997
 21
-280.64938422519998
 31
0.0
  0
ARC
  5
32F
  8
┌▓È_1
 62
     5
 10
-215.6532944953
 20
-292.14938422519998
 30
0.0
 40
3.5
 50
90.0
 51
270.0
  0
ARC
  5
330
  8
┌▓È_1
 62
     5
 10
-275.65329449529997
 20
-292.14938422519998
 30
0.0
 40
3.5
 50
270.0
 51
90.0
  0
ARC
  5
331
  8
┌▓È_1
 62
     5
 10
-290.65329449529997
 20
-292.14938422519998
 30
0.0
 40
3.5
 50
90.0
 51
270.0
  0
ARC
  5
332
  8
┌▓È_1
 62
     5
 10
-275.65329449529997
 20
-277.14938422519998
 30
0.0
 40
3.5
 50
270.0
 51
90.0
  0
ARC
  5
333
  8
┌▓È_1
 62
     5
 10
-215.6532944953
 20
-277.14938422519998
 30
0.0
 40
3.5
 50
90.0
 51
270.0
  0
ARC
  5
334
  8
┌▓È_1
 10
-611.45294496060001
 20
-423.89754862389998
 30
0.0
 40
0.8
 50
270.0
 51
0.0
  0
ARC
  5
335
  8
┌▓È_1
 62
     5
 10
-553.15329449529986
 20
-247.14938422520001
 30
0.0
 40
3.5
 50
90.0
 51
270.0
  0
ARC
  5
336
  8
┌▓È_1
 62
     5
 10
-538.15329449529997
 20
-247.14938422520001
 30
0.0
 40
3.5
 50
270.0
 51
90.0
  0
LINE
  5
337
  8
┌▓È_1
 62
     5
 10
-553.15329449529986
 20
-250.64938422520001
 30
0.0
 11
-538.15329449529997
 21
-250.64938422520001
 31
0.0
  0
LINE
  5
338
  8
┌▓È_1
 10
-603.45294496060001
 20
-400.69754862389988
 30
0.0
 11
-603.45294496060001
 21
-423.89754862389998
 31
0.0
  0
ARC
  5
339
  8
┌▓È_1
 10
-618.85294496059998
 20
-423.89754862389998
 30
0.0
 40
0.8
 50
180.0
 51
270.0
  0
LINE
  5
33A
  8
┌▓È_1
 62
     5
 10
-553.15329449529986
 20
-235.64938422520001
 30
0.0
 11
-538.15329449529997
 21
-235.64938422520001
 31
0.0
  0
LINE
  5
33B
  8
┌▓È_1
 62
     5
 10
-538.15329449529997
 20
-228.64938422520001
 30
0.0
 11
-553.15329449529986
 21
-228.64938422520001
 31
0.0
  0
LINE
  5
33C
  8
┌▓È_1
 62
     5
 10
-463.15329449529997
 20
-228.64938422520001
 30
0.0
 11
-478.15329449529992
 21
-228.64938422520001
 31
0.0
  0
DIMENSION
  5
34B
  8
Éíû@É³
  2
*D26
 10
-610.65294496059994
 20
-107.3933480961
 30
0.0
 11
-615.15294496059994
 21
-107.3933480961
 31
0.0
 70
   128
  1
<>
 13
-610.65294496059994
 23
-149.6456903202
 33
0.0
 14
-619.65294496059994
 24
-140.6456903202
 34
0.0
  0
LINE
  5
34C
  8
┌▓È_1
 62
     5
 10
-607.90329449529997
 20
-152.1456903202
 30
0.0
 11
-609.90329449529986
 21
-152.1456903202
 31
0.0
  0
LINE
  5
34D
  8
┌▓È_1
 62
     5
 10
-607.90329449529997
 20
-152.1456903202
 30
0.0
 11
-607.90329449529997
 21
-150.1456903202
 31
0.0
  0
ARC
  5
34E
  8
┌▓È_1
 62
     5
 10
-590.65329449529986
 20
-172.14938422520001
 30
0.0
 40
3.5
 50
90.0
 51
270.0
  0
ARC
  5
34F
  8
┌▓È_1
 62
     5
 10
-515.65329449529986
 20
-172.14938422520001
 30
0.0
 40
3.5
 50
90.0
 51
270.0
  0
ARC
  5
350
  8
┌▓È_1
 62
     5
 10
-575.65329449529997
 20
-172.14938422520001
 30
0.0
 40
3.5
 50
270.0
 51
90.0
  0
ARC
  5
351
  8
┌▓È_1
 62
     5
 10
-515.65329449529986
 20
-202.14938422520001
 30
0.0
 40
3.5
 50
90.0
 51
270.0
  0
ARC
  5
352
  8
┌▓È_1
 62
     5
 10
-590.65329449529986
 20
-187.14938422520001
 30
0.0
 40
3.5
 50
90.0
 51
270.0
  0
LINE
  5
353
  8
┌▓È_1
 62
     5
 10
-590.65329449529986
 20
-175.64938422520001
 30
0.0
 11
-575.65329449529997
 21
-175.64938422520001
 31
0.0
  0
ARC
  5
354
  8
┌▓È_1
 62
     5
 10
-575.65329449529997
 20
-202.14938422520001
 30
0.0
 40
3.5
 50
270.0
 51
90.0
  0
LINE
  5
355
  8
┌▓È_1
 62
     5
 10
-590.65329449529986
 20
-205.64938422520001
 30
0.0
 11
-575.65329449529997
 21
-205.64938422520001
 31
0.0
  0
LINE
  5
356
  8
┌▓È_1
 62
     5
 10
-575.65329449529997
 20
-198.64938422520001
 30
0.0
 11
-590.65329449529986
 21
-198.64938422520001
 31
0.0
  0
LINE
  5
357
  8
┌▓È_1
 62
     5
 10
-575.65329449529997
 20
-168.64938422520001
 30
0.0
 11
-590.65329449529986
 21
-168.64938422520001
 31
0.0
  0
ARC
  5
358
  8
┌▓È_1
 62
     5
 10
-515.65329449529986
 20
-187.14938422520001
 30
0.0
 40
3.5
 50
90.0
 51
270.0
  0
ARC
  5
359
  8
┌▓È_1
 62
     5
 10
-590.65329449529986
 20
-202.14938422520001
 30
0.0
 40
3.5
 50
90.0
 51
270.0
  0
ARC
  5
35A
  8
┌▓È_1
 62
     5
 10
-575.65329449529997
 20
-187.14938422520001
 30
0.0
 40
3.5
 50
270.0
 51
90.0
  0
ARC
  5
35B
  8
┌▓È_1
 62
     5
 10
-575.65329449529997
 20
-277.14938422519998
 30
0.0
 40
3.5
 50
270.0
 51
90.0
  0
LINE
  5
35C
  8
┌▓È_1
 62
     5
 10
-590.65329449529986
 20
-303.64938422519998
 30
0.0
 11
-575.65329449529997
 21
-303.64938422519998
 31
0.0
  0
LINE
  5
35D
  8
┌▓È_1
 62
     5
 10
-575.65329449529997
 20
-310.64938422519998
 30
0.0
 11
-590.65329449529986
 21
-310.64938422519998
 31
0.0
  0
ARC
  5
35E
  8
┌▓È_1
 62
     5
 10
-590.65329449529986
 20
-307.14938422519998
 30
0.0
 40
3.5
 50
90.0
 51
270.0
  0
ARC
  5
35F
  8
┌▓È_1
 62
     5
 10
-575.65329449529997
 20
-292.14938422519998
 30
0.0
 40
3.5
 50
270.0
 51
90.0
  0
LINE
  5
360
  8
┌▓È_1
 62
     5
 10
-590.65329449529986
 20
-288.64938422519998
 30
0.0
 11
-575.65329449529997
 21
-288.64938422519998
 31
0.0
  0
LINE
  5
361
  8
┌▓È_1
 62
     5
 10
-590.65329449529986
 20
-273.64938422519998
 30
0.0
 11
-575.65329449529997
 21
-273.64938422519998
 31
0.0
  0
ARC
  5
362
  8
┌▓È_1
 62
     5
 10
-515.65329449529986
 20
-292.14938422519998
 30
0.0
 40
3.5
 50
90.0
 51
270.0
  0
ARC
  5
363
  8
┌▓È_1
 62
     5
 10
-515.65329449529986
 20
-307.14938422519998
 30
0.0
 40
3.5
 50
90.0
 51
270.0
  0
LINE
  5
364
  8
┌▓È_1
 62
     5
 10
-500.65329449529997
 20
-280.64938422519998
 30
0.0
 11
-515.65329449529986
 21
-280.64938422519998
 31
0.0
  0
LINE
  5
365
  8
┌▓È_1
 62
     5
 10
-500.65329449529997
 20
-310.64938422519998
 30
0.0
 11
-515.65329449529986
 21
-310.64938422519998
 31
0.0
  0
LINE
  5
366
  8
┌▓È_1
 62
     5
 10
-515.65329449529986
 20
-273.64938422519998
 30
0.0
 11
-500.65329449529997
 21
-273.64938422519998
 31
0.0
  0
LINE
  5
367
  8
┌▓È_1
 62
     5
 10
-515.65329449529986
 20
-288.64938422519998
 30
0.0
 11
-500.65329449529997
 21
-288.64938422519998
 31
0.0
  0
LINE
  5
368
  8
┌▓È_1
 62
     5
 10
-478.15329449529992
 20
-235.64938422520001
 30
0.0
 11
-463.15329449529997
 21
-235.64938422520001
 31
0.0
  0
ARC
  5
369
  8
┌▓È_1
 62
     5
 10
-478.15329449529992
 20
-247.14938422520001
 30
0.0
 40
3.5
 50
90.0
 51
270.0
  0
LINE
  5
36A
  8
┌▓È_1
 62
     5
 10
-538.15329449529997
 20
-243.64938422520001
 30
0.0
 11
-553.15329449529986
 21
-243.64938422520001
 31
0.0
  0
LINE
  5
36B
  8
┌▓È_1
 62
     5
 10
-478.15329449529992
 20
-250.64938422520001
 30
0.0
 11
-463.15329449529997
 21
-250.64938422520001
 31
0.0
  0
LINE
  5
36C
  8
┌▓È_1
 62
     5
 10
-463.15329449529997
 20
-243.64938422520001
 30
0.0
 11
-478.15329449529992
 21
-243.64938422520001
 31
0.0
  0
ARC
  5
36D
  8
┌▓È_1
 62
     5
 10
-575.65329449529997
 20
-307.14938422519998
 30
0.0
 40
3.5
 50
270.0
 51
90.0
  0
ARC
  5
36E
  8
┌▓È_1
 62
     5
 10
-500.65329449529997
 20
-292.14938422519998
 30
0.0
 40
3.5
 50
270.0
 51
90.0
  0
ARC
  5
36F
  8
┌▓È_1
 62
     5
 10
-500.65329449529997
 20
-277.14938422519998
 30
0.0
 40
3.5
 50
270.0
 51
90.0
  0
ARC
  5
370
  8
┌▓È_1
 62
     5
 10
-500.65329449529997
 20
-307.14938422519998
 30
0.0
 40
3.5
 50
270.0
 51
90.0
  0
LINE
  5
371
  8
┌▓È_1
 10
-602.65297804529996
 20
-418.69754862389988
 30
0.0
 11
-602.65297804529996
 21
-424.69754862389999
 31
0.0
  0
LINE
  5
372
  8
┌▓È_1
 10
-602.65297804529996
 20
-423.89754862389998
 30
0.0
 11
-618.85294496059998
 21
-423.89754862389998
 31
0.0
  0
LINE
  5
373
  8
┌▓È_1
 10
-611.45294496060001
 20
-400.69754862389988
 30
0.0
 11
-611.45294496060001
 21
-423.89754862389998
 31
0.0
  0
LINE
  5
374
  8
┌▓È_1
 62
     5
 10
-269.8111124289
 20
-643.04061520129994
 30
0.0
 11
-284.8111124289
 21
-643.04061520129994
 31
0.0
  0
ARC
  5
375
  8
┌▓È_1
 62
     5
 10
-322.3111124289
 20
-579.54061520129994
 30
0.0
 40
3.5
 50
90.0
 51
270.0
  0
ARC
  5
376
  8
┌▓È_1
 62
     5
 10
-307.3111124289
 20
-579.54061520129994
 30
0.0
 40
3.5
 50
270.0
 51
90.0
  0
INSERT
  5
378
  8
Éíû@É³
  2
BALLON0
 10
0.0
 20
0.0
 30
0.0
  0
INSERT
  5
382
  8
Éíû@É³
  2
BALLON1
 10
0.0
 20
0.0
 30
0.0
  0
INSERT
  5
38C
  8
Éíû@É³
  2
BALLON2
 10
0.0
 20
0.0
 30
0.0
  0
LINE
  5
395
  8
┌▓È_1
  6
BORDER
 62
     3
 10
-583.15329449529986
 20
-227.14938422520001
 30
0.0
 11
-583.15329449529986
 21
-252.14938422520001
 31
0.0
  0
ARC
  5
396
  8
┌▓È_1
 62
     5
 10
-553.15329449529986
 20
-232.14938422520001
 30
0.0
 40
3.5
 50
90.0
 51
270.0
  0
ARC
  5
397
  8
┌▓È_1
 62
     5
 10
-478.15329449529992
 20
-232.14938422520001
 30
0.0
 40
3.5
 50
90.0
 51
270.0
  0
ARC
  5
398
  8
┌▓È_1
 62
     5
 10
-538.15329449529997
 20
-232.14938422520001
 30
0.0
 40
3.5
 50
270.0
 51
90.0
  0
LINE
  5
399
  8
┌▓È_1
 62
     5
 10
-500.65329449529997
 20
-295.64938422519998
 30
0.0
 11
-515.65329449529986
 21
-295.64938422519998
 31
0.0
  0
LINE
  5
39A
  8
┌▓È_1
 62
     5
 10
-515.65329449529986
 20
-303.64938422519998
 30
0.0
 11
-500.65329449529997
 21
-303.64938422519998
 31
0.0
  0
CIRCLE
  5
39B
  8
┌▓È_1
 62
     5
 10
-583.15329449529986
 20
-239.64938422520001
 30
0.0
 40
7.5
  0
LINE
  5
39C
  8
┌▓È_1
 10
-619.65294496059994
 20
-423.89754862389998
 30
0.0
 11
-619.65294496059994
 21
-418.69754862389988
 31
0.0
  0
ARC
  5
39D
  8
┌▓È_1
 10
-618.85294496059998
 20
-395.4975486239
 30
0.0
 40
0.8
 50
90.0
 51
180.0
  0
LINE
  5
39E
  8
┌▓È_1
 10
-618.85294496059998
 20
-423.89754862389998
 30
0.0
 11
-618.85294496059998
 21
-418.69754862389988
 31
0.0
  0
LINE
  5
39F
  8
┌▓È_1
 10
-618.85294496059998
 20
-418.69754862389988
 30
0.0
 11
-619.65294496059994
 21
-418.69754862389988
 31
0.0
  0
LINE
  5
3A0
  8
┌▓È_1
 10
-619.65294496059994
 20
-400.69754862389988
 30
0.0
 11
-619.65294496059994
 21
-395.4975486239
 31
0.0
  0
LINE
  5
3A1
  8
┌▓È_1
 62
     5
 10
-607.90329449529997
 20
-327.1456903202
 30
0.0
 11
-609.90329449529986
 21
-327.1456903202
 31
0.0
  0
LINE
  5
3A2
  8
┌▓È_1
 62
     5
 10
-607.90329449529997
 20
-327.1456903202
 30
0.0
 11
-607.90329449529997
 21
-329.1456903202
 31
0.0
  0
LINE
  5
3A3
  8
┌▓È_1
 62
     5
 10
-575.65329449529997
 20
-295.64938422519998
 30
0.0
 11
-590.65329449529986
 21
-295.64938422519998
 31
0.0
  0
ARC
  5
3A4
  8
┌▓È_1
 62
     5
 10
-590.65329449529986
 20
-292.14938422519998
 30
0.0
 40
3.5
 50
90.0
 51
270.0
  0
LINE
  5
3A5
  8
┌▓È_1
 62
     5
 10
-575.65329449529997
 20
-280.64938422519998
 30
0.0
 11
-590.65329449529986
 21
-280.64938422519998
 31
0.0
  0
ARC
  5
3A6
  8
┌▓È_1
 62
     5
 10
-590.65329449529986
 20
-277.14938422519998
 30
0.0
 40
3.5
 50
90.0
 51
270.0
  0
ARC
  5
3A7
  8
┌▓È_1
 62
     5
 10
-515.65329449529986
 20
-277.14938422519998
 30
0.0
 40
3.5
 50
90.0
 51
270.0
  0
ARC
  5
3A8
  8
┌▓È_1
 62
     5
 10
-344.8111124289
 20
-534.54061520129994
 30
0.0
 40
3.5
 50
270.0
 51
90.0
  0
ARC
  5
3A9
  8
┌▓È_1
 62
     5
 10
-344.8111124289
 20
-624.54061520129994
 30
0.0
 40
3.5
 50
270.0
 51
90.0
  0
ARC
  5
3AA
  8
┌▓È_1
 62
     5
 10
-344.8111124289
 20
-504.5406152013
 30
0.0
 40
3.5
 50
270.0
 51
90.0
  0
ARC
  5
3AB
  8
┌▓È_1
 62
     5
 10
-344.8111124289
 20
-639.54061520129994
 30
0.0
 40
3.5
 50
270.0
 51
90.0
  0
ARC
  5
3AC
  8
┌▓È_1
 62
     5
 10
-284.8111124289
 20
-609.54061520129994
 30
0.0
 40
3.5
 50
90.0
 51
270.0
  0
LINE
  5
3AD
  8
┌▓È_1
 62
     5
 10
-269.8111124289
 20
-613.04061520129994
 30
0.0
 11
-284.8111124289
 21
-613.04061520129994
 31
0.0
  0
LINE
  5
3AE
  8
┌▓È_1
 62
     5
 10
-284.8111124289
 20
-606.04061520129994
 30
0.0
 11
-269.8111124289
 21
-606.04061520129994
 31
0.0
  0
ARC
  5
3AF
  8
┌▓È_1
 62
     5
 10
-194.8111124289
 20
-534.54061520129994
 30
0.0
 40
3.5
 50
270.0
 51
90.0
  0
ARC
  5
3B0
  8
┌▓È_1
 62
     5
 10
-194.8111124289
 20
-639.54061520129994
 30
0.0
 40
3.5
 50
270.0
 51
90.0
  0
ARC
  5
3B1
  8
┌▓È_1
 62
     5
 10
-194.8111124289
 20
-609.54061520129994
 30
0.0
 40
3.5
 50
270.0
 51
90.0
  0
ARC
  5
3B2
  8
┌▓È_1
 62
     5
 10
-194.8111124289
 20
-504.5406152013
 30
0.0
 40
3.5
 50
270.0
 51
90.0
  0
ARC
  5
3B3
  8
┌▓È_1
 62
     5
 10
-194.8111124289
 20
-519.54061520129994
 30
0.0
 40
3.5
 50
270.0
 51
90.0
  0
ARC
  5
3B4
  8
┌▓È_1
 62
     5
 10
-194.8111124289
 20
-624.54061520129994
 30
0.0
 40
3.5
 50
270.0
 51
90.0
  0
ARC
  5
3B5
  8
┌▓È_1
 62
     5
 10
-172.3111124289
 20
-579.54061520129994
 30
0.0
 40
3.5
 50
90.0
 51
270.0
  0
ARC
  5
3B6
  8
┌▓È_1
 62
     5
 10
-172.3111124289
 20
-564.54061520129994
 30
0.0
 40
3.5
 50
90.0
 51
270.0
  0
LINE
  5
3B7
  8
┌▓È_1
 62
     5
 10
-157.3111124289
 20
-576.04061520129994
 30
0.0
 11
-172.3111124289
 21
-576.04061520129994
 31
0.0
  0
ARC
  5
3B8
  8
┌▓È_1
 62
     5
 10
-157.3111124289
 20
-579.54061520129994
 30
0.0
 40
3.5
 50
270.0
 51
90.0
  0
LINE
  5
3B9
  8
┌▓È_1
 62
     5
 10
-157.3111124289
 20
-561.04061520129994
 30
0.0
 11
-172.3111124289
 21
-561.04061520129994
 31
0.0
  0
LINE
  5
3BA
  8
┌▓È_1
 62
     5
 10
-172.3111124289
 20
-568.04061520129994
 30
0.0
 11
-157.3111124289
 21
-568.04061520129994
 31
0.0
  0
ARC
  5
3BB
  8
┌▓È_1
 62
     5
 10
-157.3111124289
 20
-564.54061520129994
 30
0.0
 40
3.5
 50
270.0
 51
90.0
  0
LINE
  5
3BC
  8
┌▓È_1
 62
     5
 10
-172.3111124289
 20
-583.04061520129994
 30
0.0
 11
-157.3111124289
 21
-583.04061520129994
 31
0.0
  0
ARC
  5
3BD
  8
┌▓È_1
 62
     5
 10
-269.8111124289
 20
-504.5406152013
 30
0.0
 40
3.5
 50
270.0
 51
90.0
  0
LINE
  5
3BE
  8
┌▓È_1
 62
     5
 10
-284.8111124289
 20
-636.04061520129994
 30
0.0
 11
-269.8111124289
 21
-636.04061520129994
 31
0.0
  0
ARC
  5
3BF
  8
┌▓È_1
 62
     5
 10
-269.8111124289
 20
-624.54061520129994
 30
0.0
 40
3.5
 50
270.0
 51
90.0
  0
ARC
  5
3C0
  8
┌▓È_1
 62
     5
 10
-284.8111124289
 20
-639.54061520129994
 30
0.0
 40
3.5
 50
90.0
 51
270.0
  0
LINE
  5
3C1
  8
┌▓È_1
 62
     5
 10
-397.3111124289
 20
-568.04061520129994
 30
0.0
 11
-382.3111124289
 21
-568.04061520129994
 31
0.0
  0
ARC
  5
3C2
  8
┌▓È_1
 62
     5
 10
-382.3111124289
 20
-564.54061520129994
 30
0.0
 40
3.5
 50
270.0
 51
90.0
  0
LINE
  5
3C3
  8
┌▓È_1
 62
     5
 10
-382.3111124289
 20
-576.04061520129994
 30
0.0
 11
-397.3111124289
 21
-576.04061520129994
 31
0.0
  0
LINE
  5
3C4
  8
┌▓È_1
 62
     5
 10
-397.3111124289
 20
-583.04061520129994
 30
0.0
 11
-382.3111124289
 21
-583.04061520129994
 31
0.0
  0
ARC
  5
3C5
  8
┌▓È_1
 62
     5
 10
-209.8111124289
 20
-519.54061520129994
 30
0.0
 40
3.5
 50
90.0
 51
270.0
  0
ARC
  5
3C6
  8
┌▓È_1
 62
     5
 10
-209.8111124289
 20
-534.54061520129994
 30
0.0
 40
3.5
 50
90.0
 51
270.0
  0
ARC
  5
3C7
  8
┌▓È_1
 62
     5
 10
-209.8111124289
 20
-504.5406152013
 30
0.0
 40
3.5
 50
90.0
 51
270.0
  0
ARC
  5
3C8
  8
┌▓È_1
 62
     5
 10
-209.8111124289
 20
-624.54061520129994
 30
0.0
 40
3.5
 50
90.0
 51
270.0
  0
ARC
  5
3C9
  8
┌▓È_1
 62
     5
 10
-247.3111124289
 20
-579.54061520129994
 30
0.0
 40
3.5
 50
90.0
 51
270.0
  0
LINE
  5
3CA
  8
┌▓È_1
 62
     5
 10
-232.3111124289
 20
-576.04061520129994
 30
0.0
 11
-247.3111124289
 21
-576.04061520129994
 31
0.0
  0
LINE
  5
3CB
  8
┌▓È_1
 62
     5
 10
-247.3111124289
 20
-583.04061520129994
 30
0.0
 11
-232.3111124289
 21
-583.04061520129994
 31
0.0
  0
ARC
  5
3CC
  8
┌▓È_1
 62
     5
 10
-247.3111124289
 20
-564.54061520129994
 30
0.0
 40
3.5
 50
90.0
 51
270.0
  0
LINE
  5
3CD
  8
┌▓È_1
 62
     5
 10
-232.3111124289
 20
-561.04061520129994
 30
0.0
 11
-247.3111124289
 21
-561.04061520129994
 31
0.0
  0
LINE
  5
3CE
  8
┌▓È_1
 62
     5
 10
-247.3111124289
 20
-568.04061520129994
 30
0.0
 11
-232.3111124289
 21
-568.04061520129994
 31
0.0
  0
ARC
  5
3CF
  8
┌▓È_1
 62
     5
 10
-284.8111124289
 20
-504.5406152013
 30
0.0
 40
3.5
 50
90.0
 51
270.0
  0
LINE
  5
3D0
  8
┌▓È_1
 62
     5
 10
-269.8111124289
 20
-501.0406152013
 30
0.0
 11
-284.8111124289
 21
-501.0406152013
 31
0.0
  0
LINE
  5
3D1
  8
┌▓È_1
 62
     5
 10
-322.3111124289
 20
-583.04061520129994
 30
0.0
 11
-307.3111124289
 21
-583.04061520129994
 31
0.0
  0
LINE
  5
3D2
  8
┌▓È_1
 62
     5
 10
-307.3111124289
 20
-576.04061520129994
 30
0.0
 11
-322.3111124289
 21
-576.04061520129994
 31
0.0
  0
ARC
  5
3D3
  8
┌▓È_1
 62
     5
 10
-322.3111124289
 20
-564.54061520129994
 30
0.0
 40
3.5
 50
90.0
 51
270.0
  0
LINE
  5
3D4
  8
┌▓È_1
 62
     5
 10
-307.3111124289
 20
-561.04061520129994
 30
0.0
 11
-322.3111124289
 21
-561.04061520129994
 31
0.0
  0
LINE
  5
3D5
  8
┌▓È_1
 62
     5
 10
-322.3111124289
 20
-568.04061520129994
 30
0.0
 11
-307.3111124289
 21
-568.04061520129994
 31
0.0
  0
LINE
  5
3D6
  8
┌▓È_1
 62
     5
 10
-284.8111124289
 20
-523.04061520129994
 30
0.0
 11
-269.8111124289
 21
-523.04061520129994
 31
0.0
  0
ARC
  5
3D7
  8
┌▓È_1
 62
     5
 10
-419.8111124289
 20
-534.54061520129994
 30
0.0
 40
3.5
 50
270.0
 51
90.0
  0
ARC
  5
3D8
  8
┌▓È_1
 62
     5
 10
-344.8111124289
 20
-609.54061520129994
 30
0.0
 40
3.5
 50
270.0
 51
90.0
  0
ARC
  5
3D9
  8
┌▓È_1
 62
     5
 10
-344.8111124289
 20
-519.54061520129994
 30
0.0
 40
3.5
 50
270.0
 51
90.0
  0
LINE
  5
3DA
  8
┌▓È_1
 62
     5
 10
-194.8111124289
 20
-643.04061520129994
 30
0.0
 11
-209.8111124289
 21
-643.04061520129994
 31
0.0
  0
LINE
  5
3DB
  8
┌▓È_1
 62
     5
 10
-209.8111124289
 20
-508.0406152013
 30
0.0
 11
-194.8111124289
 21
-508.0406152013
 31
0.0
  0
LINE
  5
3DC
  8
┌▓È_1
 62
     5
 10
-194.8111124289
 20
-501.0406152013
 30
0.0
 11
-209.8111124289
 21
-501.0406152013
 31
0.0
  0
LINE
  5
3DD
  8
┌▓È_1
 62
     5
 10
-194.8111124289
 20
-516.04061520129994
 30
0.0
 11
-209.8111124289
 21
-516.04061520129994
 31
0.0
  0
ARC
  5
3DE
  8
┌▓È_1
 62
     5
 10
-209.8111124289
 20
-609.54061520129994
 30
0.0
 40
3.5
 50
90.0
 51
270.0
  0
ARC
  5
3DF
  8
┌▓È_1
 62
     5
 10
-232.3111124289
 20
-579.54061520129994
 30
0.0
 40
3.5
 50
270.0
 51
90.0
  0
ARC
  5
3E0
  8
┌▓È_1
 62
     5
 10
-209.8111124289
 20
-639.54061520129994
 30
0.0
 40
3.5
 50
90.0
 51
270.0
  0
ARC
  5
3E1
  8
┌▓È_1
 62
     5
 10
-232.3111124289
 20
-564.54061520129994
 30
0.0
 40
3.5
 50
270.0
 51
90.0
  0
ARC
  5
3E2
  8
┌▓È_1
 62
     5
 10
-269.8111124289
 20
-609.54061520129994
 30
0.0
 40
3.5
 50
270.0
 51
90.0
  0
ARC
  5
3E3
  8
┌▓È_1
 62
     5
 10
-284.8111124289
 20
-624.54061520129994
 30
0.0
 40
3.5
 50
90.0
 51
270.0
  0
LINE
  5
3E4
  8
┌▓È_1
 62
     5
 10
-269.8111124289
 20
-628.04061520129994
 30
0.0
 11
-284.8111124289
 21
-628.04061520129994
 31
0.0
  0
LINE
  5
3E5
  8
┌▓È_1
 62
     5
 10
-284.8111124289
 20
-621.04061520129994
 30
0.0
 11
-269.8111124289
 21
-621.04061520129994
 31
0.0
  0
ARC
  5
3E6
  8
┌▓È_1
 62
     5
 10
-269.8111124289
 20
-519.54061520129994
 30
0.0
 40
3.5
 50
270.0
 51
90.0
  0
ARC
  5
3E7
  8
┌▓È_1
 62
     5
 10
-284.8111124289
 20
-534.54061520129994
 30
0.0
 40
3.5
 50
90.0
 51
270.0
  0
LINE
  5
3E8
  8
┌▓È_1
 62
     5
 10
-269.8111124289
 20
-531.04061520129994
 30
0.0
 11
-284.8111124289
 21
-531.04061520129994
 31
0.0
  0
LINE
  5
3E9
  8
┌▓È_1
 62
     5
 10
-284.8111124289
 20
-538.04061520129994
 30
0.0
 11
-269.8111124289
 21
-538.04061520129994
 31
0.0
  0
ARC
  5
3EA
  8
┌▓È_1
 62
     5
 10
-269.8111124289
 20
-534.54061520129994
 30
0.0
 40
3.5
 50
270.0
 51
90.0
  0
ARC
  5
3EB
  8
┌▓È_1
 62
     5
 10
-284.8111124289
 20
-519.54061520129994
 30
0.0
 40
3.5
 50
90.0
 51
270.0
  0
LINE
  5
3EC
  8
┌▓È_1
 62
     5
 10
-269.8111124289
 20
-516.04061520129994
 30
0.0
 11
-284.8111124289
 21
-516.04061520129994
 31
0.0
  0
ARC
  5
3ED
  8
┌▓È_1
 62
     5
 10
-269.8111124289
 20
-639.54061520129994
 30
0.0
 40
3.5
 50
270.0
 51
90.0
  0
ARC
  5
3EE
  8
┌▓È_1
 62
     5
 10
-307.3111124289
 20
-564.54061520129994
 30
0.0
 40
3.5
 50
270.0
 51
90.0
  0
LINE
  5
3EF
  8
┌▓È_1
 62
     5
 10
-284.8111124289
 20
-508.0406152013
 30
0.0
 11
-269.8111124289
 21
-508.0406152013
 31
0.0
  0
LINE
  5
3F0
  8
┌▓È_1
 62
     5
 10
-419.8111124289
 20
-643.04061520129994
 30
0.0
 11
-434.81111242889989
 21
-643.04061520129994
 31
0.0
  0
LINE
  5
3F1
  8
┌▓È_1
 62
     5
 10
-434.81111242889989
 20
-636.04061520129994
 30
0.0
 11
-419.8111124289
 21
-636.04061520129994
 31
0.0
  0
LINE
  5
3F2
  8
┌▓È_1
 62
     5
 10
-382.3111124289
 20
-561.04061520129994
 30
0.0
 11
-397.3111124289
 21
-561.04061520129994
 31
0.0
  0
LINE
  5
3F3
  8
┌▓È_1
 62
     5
 10
-359.8111124289
 20
-606.04061520129994
 30
0.0
 11
-344.8111124289
 21
-606.04061520129994
 31
0.0
  0
LINE
  5
3F4
  8
┌▓È_1
 62
     5
 10
-344.8111124289
 20
-516.04061520129994
 30
0.0
 11
-359.8111124289
 21
-516.04061520129994
 31
0.0
  0
LINE
  5
3F5
  8
┌▓È_1
 62
     5
 10
-359.8111124289
 20
-523.04061520129994
 30
0.0
 11
-344.8111124289
 21
-523.04061520129994
 31
0.0
  0
LINE
  5
3F6
  8
┌▓È_1
 62
     5
 10
-344.8111124289
 20
-531.04061520129994
 30
0.0
 11
-359.8111124289
 21
-531.04061520129994
 31
0.0
  0
ARC
  5
3F7
  8
┌▓È_1
 62
     5
 10
-382.3111124289
 20
-579.54061520129994
 30
0.0
 40
3.5
 50
270.0
 51
90.0
  0
ARC
  5
3F8
  8
┌▓È_1
 62
     5
 10
-359.8111124289
 20
-504.5406152013
 30
0.0
 40
3.5
 50
90.0
 51
270.0
  0
ARC
  5
3F9
  8
┌▓È_1
 62
     5
 10
-359.8111124289
 20
-639.54061520129994
 30
0.0
 40
3.5
 50
90.0
 51
270.0
  0
ARC
  5
3FA
  8
┌▓È_1
 62
     5
 10
-359.8111124289
 20
-519.54061520129994
 30
0.0
 40
3.5
 50
90.0
 51
270.0
  0
ARC
  5
3FB
  8
┌▓È_1
 62
     5
 10
-359.8111124289
 20
-609.54061520129994
 30
0.0
 40
3.5
 50
90.0
 51
270.0
  0
ARC
  5
3FC
  8
┌▓È_1
 62
     5
 10
-359.8111124289
 20
-534.54061520129994
 30
0.0
 40
3.5
 50
90.0
 51
270.0
  0
ARC
  5
3FD
  8
┌▓È_1
 62
     5
 10
-397.3111124289
 20
-564.54061520129994
 30
0.0
 40
3.5
 50
90.0
 51
270.0
  0
ARC
  5
3FE
  8
┌▓È_1
 62
     5
 10
-397.3111124289
 20
-579.54061520129994
 30
0.0
 40
3.5
 50
90.0
 51
270.0
  0
LINE
  5
3FF
  8
┌▓È_1
 62
     5
 10
-434.81111242889989
 20
-508.0406152013
 30
0.0
 11
-419.8111124289
 21
-508.0406152013
 31
0.0
  0
ARC
  5
400
  8
┌▓È_1
 62
     5
 10
-434.81111242889989
 20
-504.5406152013
 30
0.0
 40
3.5
 50
90.0
 51
270.0
  0
ARC
  5
401
  8
┌▓È_1
 62
     5
 10
-419.8111124289
 20
-504.5406152013
 30
0.0
 40
3.5
 50
270.0
 51
90.0
  0
LINE
  5
402
  8
┌▓È_1
 62
     5
 10
-419.8111124289
 20
-501.0406152013
 30
0.0
 11
-434.81111242889989
 21
-501.0406152013
 31
0.0
  0
ARC
  5
403
  8
┌▓È_1
 62
     5
 10
-434.81111242889989
 20
-624.54061520129994
 30
0.0
 40
3.5
 50
90.0
 51
270.0
  0
LINE
  5
404
  8
┌▓È_1
 62
     5
 10
-419.8111124289
 20
-628.04061520129994
 30
0.0
 11
-434.81111242889989
 21
-628.04061520129994
 31
0.0
  0
ARC
  5
405
  8
┌▓È_1
 62
     5
 10
-434.81111242889989
 20
-609.54061520129994
 30
0.0
 40
3.5
 50
90.0
 51
270.0
  0
LINE
  5
406
  8
┌▓È_1
 62
     5
 10
-419.8111124289
 20
-613.04061520129994
 30
0.0
 11
-434.81111242889989
 21
-613.04061520129994
 31
0.0
  0
ARC
  5
407
  8
┌▓È_1
 62
     5
 10
-419.8111124289
 20
-639.54061520129994
 30
0.0
 40
3.5
 50
270.0
 51
90.0
  0
LINE
  5
408
  8
┌▓È_1
 62
     5
 10
-434.81111242889989
 20
-538.04061520129994
 30
0.0
 11
-419.8111124289
 21
-538.04061520129994
 31
0.0
  0
LINE
  5
409
  8
┌▓È_1
 62
     5
 10
-344.8111124289
 20
-501.0406152013
 30
0.0
 11
-359.8111124289
 21
-501.0406152013
 31
0.0
  0
LINE
  5
40A
  8
┌▓È_1
 62
     5
 10
-209.8111124289
 20
-538.04061520129994
 30
0.0
 11
-194.8111124289
 21
-538.04061520129994
 31
0.0
  0
LINE
  5
40B
  8
┌▓È_1
 62
     5
 10
-209.8111124289
 20
-636.04061520129994
 30
0.0
 11
-194.8111124289
 21
-636.04061520129994
 31
0.0
  0
LINE
  5
40C
  8
┌▓È_1
 62
     5
 10
-359.8111124289
 20
-538.04061520129994
 30
0.0
 11
-344.8111124289
 21
-538.04061520129994
 31
0.0
  0
LINE
  5
40D
  8
┌▓È_1
 62
     5
 10
-344.8111124289
 20
-628.04061520129994
 30
0.0
 11
-359.8111124289
 21
-628.04061520129994
 31
0.0
  0
LINE
  5
40E
  8
┌▓È_1
 62
     5
 10
-359.8111124289
 20
-621.04061520129994
 30
0.0
 11
-344.8111124289
 21
-621.04061520129994
 31
0.0
  0
LINE
  5
40F
  8
┌▓È_1
 62
     5
 10
-359.8111124289
 20
-508.0406152013
 30
0.0
 11
-344.8111124289
 21
-508.0406152013
 31
0.0
  0
LINE
  5
410
  8
┌▓È_1
 62
     5
 10
-209.8111124289
 20
-523.04061520129994
 30
0.0
 11
-194.8111124289
 21
-523.04061520129994
 31
0.0
  0
LINE
  5
411
  8
┌▓È_1
 62
     5
 10
-194.8111124289
 20
-531.04061520129994
 30
0.0
 11
-209.8111124289
 21
-531.04061520129994
 31
0.0
  0
LINE
  5
412
  8
┌▓È_1
 62
     5
 10
-194.8111124289
 20
-628.04061520129994
 30
0.0
 11
-209.8111124289
 21
-628.04061520129994
 31
0.0
  0
LINE
  5
413
  8
┌▓È_1
 62
     5
 10
-209.8111124289
 20
-621.04061520129994
 30
0.0
 11
-194.8111124289
 21
-621.04061520129994
 31
0.0
  0
LINE
  5
414
  8
┌▓È_1
 62
     5
 10
-194.8111124289
 20
-613.04061520129994
 30
0.0
 11
-209.8111124289
 21
-613.04061520129994
 31
0.0
  0
LINE
  5
415
  8
┌▓È_1
 62
     5
 10
-209.8111124289
 20
-606.04061520129994
 30
0.0
 11
-194.8111124289
 21
-606.04061520129994
 31
0.0
  0
ARC
  5
416
  8
┌▓È_1
 62
     5
 10
-359.8111124289
 20
-624.54061520129994
 30
0.0
 40
3.5
 50
90.0
 51
270.0
  0
ARC
  5
417
  8
┌▓È_1
 62
     5
 10
-434.81111242889989
 20
-519.54061520129994
 30
0.0
 40
3.5
 50
90.0
 51
270.0
  0
LINE
  5
418
  8
┌▓È_1
 62
     5
 10
-419.8111124289
 20
-516.04061520129994
 30
0.0
 11
-434.81111242889989
 21
-516.04061520129994
 31
0.0
  0
LINE
  5
419
  8
┌▓È_1
 62
     5
 10
-434.81111242889989
 20
-523.04061520129994
 30
0.0
 11
-419.8111124289
 21
-523.04061520129994
 31
0.0
  0
ARC
  5
41A
  8
┌▓È_1
 62
     5
 10
-419.8111124289
 20
-519.54061520129994
 30
0.0
 40
3.5
 50
270.0
 51
90.0
  0
LINE
  5
41B
  8
┌▓È_1
 62
     5
 10
-434.81111242889989
 20
-606.04061520129994
 30
0.0
 11
-419.8111124289
 21
-606.04061520129994
 31
0.0
  0
ARC
  5
41C
  8
┌▓È_1
 62
     5
 10
-419.8111124289
 20
-609.54061520129994
 30
0.0
 40
3.5
 50
270.0
 51
90.0
  0
ARC
  5
41D
  8
┌▓È_1
 62
     5
 10
-434.81111242889989
 20
-534.54061520129994
 30
0.0
 40
3.5
 50
90.0
 51
270.0
  0
LINE
  5
41E
  8
┌▓È_1
 62
     5
 10
-419.8111124289
 20
-531.04061520129994
 30
0.0
 11
-434.81111242889989
 21
-531.04061520129994
 31
0.0
  0
LINE
  5
41F
  8
┌▓È_1
 62
     5
 10
-434.81111242889989
 20
-621.04061520129994
 30
0.0
 11
-419.8111124289
 21
-621.04061520129994
 31
0.0
  0
ARC
  5
420
  8
┌▓È_1
 62
     5
 10
-419.8111124289
 20
-624.54061520129994
 30
0.0
 40
3.5
 50
270.0
 51
90.0
  0
ARC
  5
421
  8
┌▓È_1
 62
     5
 10
-434.81111242889989
 20
-639.54061520129994
 30
0.0
 40
3.5
 50
90.0
 51
270.0
  0
LINE
  5
422
  8
┌▓È_1
 62
     5
 10
-344.8111124289
 20
-643.04061520129994
 30
0.0
 11
-359.8111124289
 21
-643.04061520129994
 31
0.0
  0
LINE
  5
423
  8
┌▓È_1
 62
     5
 10
-359.8111124289
 20
-636.04061520129994
 30
0.0
 11
-344.8111124289
 21
-636.04061520129994
 31
0.0
  0
LINE
  5
424
  8
┌▓È_1
 62
     5
 10
-344.8111124289
 20
-613.04061520129994
 30
0.0
 11
-359.8111124289
 21
-613.04061520129994
 31
0.0
  0
ARC
  5
425
  8
┌▓È_1
 62
     5
 10
-494.8111124289
 20
-534.54061520129994
 30
0.0
 40
3.5
 50
270.0
 51
90.0
  0
ARC
  5
426
  8
┌▓È_1
 62
     5
 10
-509.81111242889989
 20
-519.54061520129994
 30
0.0
 40
3.5
 50
90.0
 51
270.0
  0
ARC
  5
427
  8
┌▓È_1
 62
     5
 10
-509.81111242889989
 20
-639.54061520129994
 30
0.0
 40
3.5
 50
90.0
 51
270.0
  0
LINE
  5
428
  8
┌▓È_1
  6
BORDER
 62
     3
 10
-652.31111242889995
 20
-559.54061520129994
 30
0.0
 11
-652.31111242889995
 21
-584.54061520129994
 31
0.0
  0
ARC
  5
429
  8
┌▓È_1
 62
     5
 10
-569.81111242889995
 20
-504.5406152013
 30
0.0
 40
3.5
 50
270.0
 51
90.0
  0
ARC
  5
42A
  8
┌▓È_1
 62
     5
 10
-644.81111242889995
 20
-504.5406152013
 30
0.0
 40
3.5
 50
270.0
 51
90.0
  0
LINE
  5
42B
  8
┌▓È_1
 62
     5
 10
-532.31111242889995
 20
-576.04061520129994
 30
0.0
 11
-547.31111242889995
 21
-576.04061520129994
 31
0.0
  0
LINE
  5
42C
  8
┌▓È_1
 62
     5
 10
-569.81111242889995
 20
-531.04061520129994
 30
0.0
 11
-584.81111242889995
 21
-531.04061520129994
 31
0.0
  0
ARC
  5
42D
  8
┌▓È_1
 62
     5
 10
-494.8111124289
 20
-639.54061520129994
 30
0.0
 40
3.5
 50
270.0
 51
90.0
  0
ARC
  5
42E
  8
┌▓È_1
 62
     5
 10
-494.8111124289
 20
-504.5406152013
 30
0.0
 40
3.5
 50
270.0
 51
90.0
  0
ARC
  5
42F
  8
┌▓È_1
 62
     5
 10
-494.8111124289
 20
-624.54061520129994
 30
0.0
 40
3.5
 50
270.0
 51
90.0
  0
ARC
  5
430
  8
┌▓È_1
 62
     5
 10
-494.8111124289
 20
-609.54061520129994
 30
0.0
 40
3.5
 50
270.0
 51
90.0
  0
ARC
  5
431
  8
┌▓È_1
 62
     5
 10
-494.8111124289
 20
-519.54061520129994
 30
0.0
 40
3.5
 50
270.0
 51
90.0
  0
ARC
  5
432
  8
┌▓È_1
 62
     5
 10
-472.31111242889989
 20
-579.54061520129994
 30
0.0
 40
3.5
 50
90.0
 51
270.0
  0
ARC
  5
433
  8
┌▓È_1
 62
     5
 10
-472.31111242889989
 20
-564.54061520129994
 30
0.0
 40
3.5
 50
90.0
 51
270.0
  0
LINE
  5
434
  8
┌▓È_1
 62
     5
 10
-532.31111242889995
 20
-561.04061520129994
 30
0.0
 11
-547.31111242889995
 21
-561.04061520129994
 31
0.0
  0
LINE
  5
435
  8
┌▓È_1
 62
     5
 10
-547.31111242889995
 20
-568.04061520129994
 30
0.0
 11
-532.31111242889995
 21
-568.04061520129994
 31
0.0
  0
ARC
  5
436
  8
┌▓È_1
 62
     5
 10
-532.31111242889995
 20
-564.54061520129994
 30
0.0
 40
3.5
 50
270.0
 51
90.0
  0
ARC
  5
437
  8
┌▓È_1
 62
     5
 10
-532.31111242889995
 20
-579.54061520129994
 30
0.0
 40
3.5
 50
270.0
 51
90.0
  0
ARC
  5
438
  8
┌▓È_1
 62
     5
 10
-584.81111242889995
 20
-504.5406152013
 30
0.0
 40
3.5
 50
90.0
 51
270.0
  0
LINE
  5
439
  8
┌▓È_1
 62
     5
 10
-622.31111242889995
 20
-568.04061520129994
 30
0.0
 11
-607.31111242889995
 21
-568.04061520129994
 31
0.0
  0
ARC
  5
43A
  8
┌▓È_1
 62
     5
 10
-607.31111242889995
 20
-564.54061520129994
 30
0.0
 40
3.5
 50
270.0
 51
90.0
  0
LINE
  5
43B
  8
┌▓È_1
  6
BORDER
 62
     3
 10
-389.81076289410009
 20
-735.68037180919998
 30
0.0
 11
-389.81076289410009
 21
-760.68037180919998
 31
0.0
  0
ARC
  5
43C
  8
┌▓È_1
 62
     5
 10
-457.3111124289
 20
-564.54061520129994
 30
0.0
 40
3.5
 50
270.0
 51
90.0
  0
ARC
  5
43D
  8
┌▓È_1
 62
     5
 10
-457.3111124289
 20
-579.54061520129994
 30
0.0
 40
3.5
 50
270.0
 51
90.0
  0
ARC
  5
43E
  8
┌▓È_1
 62
     5
 10
-644.81111242889995
 20
-534.54061520129994
 30
0.0
 40
3.5
 50
270.0
 51
90.0
  0
ARC
  5
43F
  8
┌▓È_1
 62
     5
 10
-644.81111242889995
 20
-609.54061520129994
 30
0.0
 40
3.5
 50
270.0
 51
90.0
  0
LINE
  5
440
  8
┌▓È_1
 62
     5
 10
-547.31111242889995
 20
-583.04061520129994
 30
0.0
 11
-532.31111242889995
 21
-583.04061520129994
 31
0.0
  0
LINE
  5
441
  8
┌▓È_1
 62
     5
 10
-677.06111242889995
 20
-484.53692129629991
 30
0.0
 11
-679.06111242889995
 21
-484.53692129629991
 31
0.0
  0
LINE
  5
442
  8
┌▓È_1
 62
     5
 10
-644.81111242889995
 20
-516.04061520129994
 30
0.0
 11
-659.81111242889995
 21
-516.04061520129994
 31
0.0
  0
LINE
  5
443
  8
┌▓È_1
 62
     5
 10
-659.81111242889995
 20
-523.04061520129994
 30
0.0
 11
-644.81111242889995
 21
-523.04061520129994
 31
0.0
  0
LINE
  5
444
  8
┌▓È_1
 62
     5
 10
-659.81111242889995
 20
-606.04061520129994
 30
0.0
 11
-644.81111242889995
 21
-606.04061520129994
 31
0.0
  0
ARC
  5
445
  8
┌▓È_1
 62
     5
 10
-659.81111242889995
 20
-534.54061520129994
 30
0.0
 40
3.5
 50
90.0
 51
270.0
  0
ARC
  5
446
  8
┌▓È_1
 62
     5
 10
-584.81111242889995
 20
-624.54061520129994
 30
0.0
 40
3.5
 50
90.0
 51
270.0
  0
LINE
  5
447
  8
┌▓È_1
 62
     5
 10
-569.81111242889995
 20
-628.04061520129994
 30
0.0
 11
-584.81111242889995
 21
-628.04061520129994
 31
0.0
  0
LINE
  5
448
  8
┌▓È_1
 62
     5
 10
-584.81111242889995
 20
-621.04061520129994
 30
0.0
 11
-569.81111242889995
 21
-621.04061520129994
 31
0.0
  0
ARC
  5
449
  8
┌▓È_1
 62
     5
 10
-584.81111242889995
 20
-519.54061520129994
 30
0.0
 40
3.5
 50
90.0
 51
270.0
  0
LINE
  5
44A
  8
┌▓È_1
 62
     5
 10
-584.81111242889995
 20
-606.04061520129994
 30
0.0
 11
-569.81111242889995
 21
-606.04061520129994
 31
0.0
  0
LINE
  5
44B
  8
┌▓È_1
 62
     5
 10
-584.81111242889995
 20
-523.04061520129994
 30
0.0
 11
-569.81111242889995
 21
-523.04061520129994
 31
0.0
  0
ARC
  5
44C
  8
┌▓È_1
 62
     5
 10
-607.31111242889995
 20
-579.54061520129994
 30
0.0
 40
3.5
 50
270.0
 51
90.0
  0
ARC
  5
44D
  8
┌▓È_1
 62
     5
 10
-569.81111242889995
 20
-609.54061520129994
 30
0.0
 40
3.5
 50
270.0
 51
90.0
  0
ARC
  5
44E
  8
┌▓È_1
 62
     5
 10
-547.31111242889995
 20
-579.54061520129994
 30
0.0
 40
3.5
 50
90.0
 51
270.0
  0
ARC
  5
44F
  8
┌▓È_1
 62
     5
 10
-547.31111242889995
 20
-564.54061520129994
 30
0.0
 40
3.5
 50
90.0
 51
270.0
  0
LINE
  5
450
  8
┌▓È_1
 62
     5
 10
-569.81111242889995
 20
-643.04061520129994
 30
0.0
 11
-584.81111242889995
 21
-643.04061520129994
 31
0.0
  0
ARC
  5
451
  8
┌▓È_1
 62
     5
 10
-644.81111242889995
 20
-624.54061520129994
 30
0.0
 40
3.5
 50
270.0
 51
90.0
  0
ARC
  5
452
  8
┌▓È_1
 62
     5
 10
-584.81111242889995
 20
-609.54061520129994
 30
0.0
 40
3.5
 50
90.0
 51
270.0
  0
LINE
  5
453
  8
┌▓È_1
 62
     5
 10
-569.81111242889995
 20
-613.04061520129994
 30
0.0
 11
-584.81111242889995
 21
-613.04061520129994
 31
0.0
  0
LINE
  5
454
  8
┌▓È_1
 62
     5
 10
-584.81111242889995
 20
-508.0406152013
 30
0.0
 11
-569.81111242889995
 21
-508.0406152013
 31
0.0
  0
ARC
  5
455
  8
┌▓È_1
 62
     5
 10
-569.81111242889995
 20
-519.54061520129994
 30
0.0
 40
3.5
 50
270.0
 51
90.0
  0
ARC
  5
456
  8
┌▓È_1
 62
     5
 10
-584.81111242889995
 20
-534.54061520129994
 30
0.0
 40
3.5
 50
90.0
 51
270.0
  0
ARC
  5
457
  8
┌▓È_1
 62
     5
 10
-509.81111242889989
 20
-609.54061520129994
 30
0.0
 40
3.5
 50
90.0
 51
270.0
  0
ARC
  5
458
  8
┌▓È_1
 62
     5
 10
-509.81111242889989
 20
-624.54061520129994
 30
0.0
 40
3.5
 50
90.0
 51
270.0
  0
ARC
  5
459
  8
┌▓È_1
 62
     5
 10
-509.81111242889989
 20
-534.54061520129994
 30
0.0
 40
3.5
 50
90.0
 51
270.0
  0
LINE
  5
45A
  8
┌▓È_1
 10
-555.39345988749994
 20
-474.32894546889997
 30
0.0
 11
-502.01677477369998
 21
-474.32894546889997
 31
0.0
  0
INSERT
  5
45B
  8
0
  6
CONTINUOUS
  2
*U84
 10
0.0
 20
0.0
 30
0.0
  0
LINE
  5
45C
  8
┌▓È_1
 10
-577.31111242889995
 20
-501.0406152013
 30
0.0
 11
-555.39345988749994
 21
-474.32894546889997
 31
0.0
  0
SOLID
  5
45D
  8
┌▓È_1
 10
-577.31111242889995
 20
-501.0406152013
 30
0.0
 11
-575.17521067389987
 21
-496.32544363109997
 31
0.0
 12
-574.98932811129987
 22
-498.21099027839989
 32
0.0
 13
-574.98932811129987
 23
-498.21099027839989
 33
0.0
  0
SOLID
  5
45E
  8
┌▓È_1
 10
-577.31111242889995
 20
-501.0406152013
 30
0.0
 11
-573.10378146400001
 21
-498.02510771579989
 31
0.0
 12
-574.98932811129987
 22
-498.21099027839989
 32
0.0
 13
-574.98932811129987
 23
-498.21099027839989
 33
0.0
  0
LINE
  5
45F
  8
┌▓È_1
 62
     5
 10
-659.81111242889995
 20
-508.0406152013
 30
0.0
 11
-644.81111242889995
 21
-508.0406152013
 31
0.0
  0
ARC
  5
460
  8
┌▓È_1
 62
     5
 10
-659.81111242889995
 20
-519.54061520129994
 30
0.0
 40
3.5
 50
90.0
 51
270.0
  0
CIRCLE
  5
461
  8
┌▓È_1
 62
     5
 10
-652.31111242889995
 20
-572.04061520129994
 30
0.0
 40
7.5
  0
ARC
  5
462
  8
┌▓È_1
 62
     5
 10
-659.81111242889995
 20
-609.54061520129994
 30
0.0
 40
3.5
 50
90.0
 51
270.0
  0
LINE
  5
463
  8
┌▓È_1
 62
     5
 10
-584.81111242889995
 20
-538.04061520129994
 30
0.0
 11
-569.81111242889995
 21
-538.04061520129994
 31
0.0
  0
ARC
  5
464
  8
┌▓È_1
 62
     5
 10
-569.81111242889995
 20
-534.54061520129994
 30
0.0
 40
3.5
 50
270.0
 51
90.0
  0
ARC
  5
465
  8
┌▓È_1
 62
     5
 10
-622.31111242889995
 20
-579.54061520129994
 30
0.0
 40
3.5
 50
90.0
 51
270.0
  0
LINE
  5
466
  8
┌▓È_1
 62
     5
 10
-607.31111242889995
 20
-576.04061520129994
 30
0.0
 11
-622.31111242889995
 21
-576.04061520129994
 31
0.0
  0
LINE
  5
467
  8
┌▓È_1
 62
     5
 10
-622.31111242889995
 20
-583.04061520129994
 30
0.0
 11
-607.31111242889995
 21
-583.04061520129994
 31
0.0
  0
ARC
  5
468
  8
┌▓È_1
 62
     5
 10
-644.81111242889995
 20
-639.54061520129994
 30
0.0
 40
3.5
 50
270.0
 51
90.0
  0
ARC
  5
469
  8
┌▓È_1
 62
     5
 10
-584.81111242889995
 20
-639.54061520129994
 30
0.0
 40
3.5
 50
90.0
 51
270.0
  0
LINE
  5
46A
  8
┌▓È_1
 62
     5
 10
-607.31111242889995
 20
-561.04061520129994
 30
0.0
 11
-622.31111242889995
 21
-561.04061520129994
 31
0.0
  0
ARC
  5
46B
  8
┌▓È_1
 62
     5
 10
-644.81111242889995
 20
-519.54061520129994
 30
0.0
 40
3.5
 50
270.0
 51
90.0
  0
LINE
  5
46C
  8
┌▓È_1
 62
     5
 10
-569.81111242889995
 20
-516.04061520129994
 30
0.0
 11
-584.81111242889995
 21
-516.04061520129994
 31
0.0
  0
LINE
  5
46D
  8
┌▓È_1
 62
     5
 10
-584.81111242889995
 20
-636.04061520129994
 30
0.0
 11
-569.81111242889995
 21
-636.04061520129994
 31
0.0
  0
ARC
  5
46E
  8
┌▓È_1
 62
     5
 10
-569.81111242889995
 20
-639.54061520129994
 30
0.0
 40
3.5
 50
270.0
 51
90.0
  0
ARC
  5
46F
  8
┌▓È_1
 62
     5
 10
-569.81111242889995
 20
-624.54061520129994
 30
0.0
 40
3.5
 50
270.0
 51
90.0
  0
LINE
  5
470
  8
┌▓È_1
 62
     5
 10
-569.81111242889995
 20
-501.0406152013
 30
0.0
 11
-584.81111242889995
 21
-501.0406152013
 31
0.0
  0
ARC
  5
471
  8
┌▓È_1
 62
     5
 10
-622.31111242889995
 20
-564.54061520129994
 30
0.0
 40
3.5
 50
90.0
 51
270.0
  0
LINE
  5
472
  8
┌▓È_1
 62
     5
 10
-644.81111242889995
 20
-613.04061520129994
 30
0.0
 11
-659.81111242889995
 21
-613.04061520129994
 31
0.0
  0
ARC
  5
473
  8
┌▓È_1
 62
     5
 10
-659.81111242889995
 20
-624.54061520129994
 30
0.0
 40
3.5
 50
90.0
 51
270.0
  0
LINE
  5
474
  8
┌▓È_1
 62
     5
 10
-644.81111242889995
 20
-628.04061520129994
 30
0.0
 11
-659.81111242889995
 21
-628.04061520129994
 31
0.0
  0
LINE
  5
475
  8
┌▓È_1
 62
     5
 10
-659.81111242889995
 20
-621.04061520129994
 30
0.0
 11
-644.81111242889995
 21
-621.04061520129994
 31
0.0
  0
LINE
  5
476
  8
┌▓È_1
 62
     5
 10
-644.81111242889995
 20
-501.0406152013
 30
0.0
 11
-659.81111242889995
 21
-501.0406152013
 31
0.0
  0
ARC
  5
477
  8
┌▓È_1
 62
     5
 10
-659.81111242889995
 20
-639.54061520129994
 30
0.0
 40
3.5
 50
90.0
 51
270.0
  0
LINE
  5
478
  8
┌▓È_1
 62
     5
 10
-644.81111242889995
 20
-643.04061520129994
 30
0.0
 11
-659.81111242889995
 21
-643.04061520129994
 31
0.0
  0
LINE
  5
479
  8
┌▓È_1
 62
     5
 10
-659.81111242889995
 20
-636.04061520129994
 30
0.0
 11
-644.81111242889995
 21
-636.04061520129994
 31
0.0
  0
ARC
  5
47A
  8
┌▓È_1
 62
     5
 10
-659.81111242889995
 20
-504.5406152013
 30
0.0
 40
3.5
 50
90.0
 51
270.0
  0
LINE
  5
47B
  8
┌▓È_1
 62
     5
 10
-677.06111242889995
 20
-484.53692129629991
 30
0.0
 11
-677.06111242889995
 21
-482.53692129629991
 31
0.0
  0
LINE
  5
47C
  8
┌▓È_1
 62
     5
 10
-644.81111242889995
 20
-531.04061520129994
 30
0.0
 11
-659.81111242889995
 21
-531.04061520129994
 31
0.0
  0
LINE
  5
47D
  8
┌▓È_1
 62
     5
 10
-659.81111242889995
 20
-538.04061520129994
 30
0.0
 11
-644.81111242889995
 21
-538.04061520129994
 31
0.0
  0
LINE
  5
47E
  8
┌▓È_1
 62
     5
 10
-509.81111242889989
 20
-538.04061520129994
 30
0.0
 11
-494.8111124289
 21
-538.04061520129994
 31
0.0
  0
LINE
  5
47F
  8
┌▓È_1
 62
     5
 10
-494.8111124289
 20
-643.04061520129994
 30
0.0
 11
-509.81111242889989
 21
-643.04061520129994
 31
0.0
  0
LINE
  5
480
  8
┌▓È_1
 62
     5
 10
-509.81111242889989
 20
-636.04061520129994
 30
0.0
 11
-494.8111124289
 21
-636.04061520129994
 31
0.0
  0
LINE
  5
481
  8
┌▓È_1
 62
     5
 10
-509.81111242889989
 20
-523.04061520129994
 30
0.0
 11
-494.8111124289
 21
-523.04061520129994
 31
0.0
  0
LINE
  5
482
  8
┌▓È_1
 62
     5
 10
-509.81111242889989
 20
-508.0406152013
 30
0.0
 11
-494.8111124289
 21
-508.0406152013
 31
0.0
  0
LINE
  5
483
  8
┌▓È_1
 62
     5
 10
-494.8111124289
 20
-501.0406152013
 30
0.0
 11
-509.81111242889989
 21
-501.0406152013
 31
0.0
  0
LINE
  5
484
  8
┌▓È_1
 62
     5
 10
-494.8111124289
 20
-628.04061520129994
 30
0.0
 11
-509.81111242889989
 21
-628.04061520129994
 31
0.0
  0
LINE
  5
485
  8
┌▓È_1
 62
     5
 10
-509.81111242889989
 20
-621.04061520129994
 30
0.0
 11
-494.8111124289
 21
-621.04061520129994
 31
0.0
  0
LINE
  5
486
  8
┌▓È_1
 62
     5
 10
-494.8111124289
 20
-613.04061520129994
 30
0.0
 11
-509.81111242889989
 21
-613.04061520129994
 31
0.0
  0
LINE
  5
487
  8
┌▓È_1
 62
     5
 10
-509.81111242889989
 20
-606.04061520129994
 30
0.0
 11
-494.8111124289
 21
-606.04061520129994
 31
0.0
  0
LINE
  5
488
  8
┌▓È_1
 62
     5
 10
-494.8111124289
 20
-531.04061520129994
 30
0.0
 11
-509.81111242889989
 21
-531.04061520129994
 31
0.0
  0
LINE
  5
489
  8
┌▓È_1
 62
     5
 10
-494.8111124289
 20
-516.04061520129994
 30
0.0
 11
-509.81111242889989
 21
-516.04061520129994
 31
0.0
  0
ARC
  5
48A
  8
┌▓È_1
 62
     5
 10
-509.81111242889989
 20
-504.5406152013
 30
0.0
 40
3.5
 50
90.0
 51
270.0
  0
DIMENSION
  5
499
  8
Éíû@É³
  2
*D30
 10
136.06597929680001
 20
-323.1456903202
 30
0.0
 11
136.06597929680001
 21
-239.6456903202
 31
0.0
 70
   128
  1
<>
 13
112.3406775542
 23
-323.1456903202
 33
0.0
 14
112.3406775542
 24
-156.1456903202
 34
0.0
 50
90.0
  0
DIMENSION
  5
4A8
  8
Éíû@É³
  2
*D31
 10
21.624368271800002
 20
-338.6456903202
 30
0.0
 11
21.624368271800002
 21
-239.6456903202
 31
0.0
 70
   128
  1
<>
 13
-33.642516118700001
 23
-338.6456903202
 33
0.0
 14
-21.652944960599999
 24
-140.6456903202
 34
0.0
 50
90.0
  0
LINE
  5
4A9
  8
┌▓È_1
 62
     5
 10
84.140677554199996
 20
-152.14616302370001
 30
0.0
 11
84.140677554199996
 21
-327.14521896600002
 31
0.0
  0
LINE
  5
4AA
  8
┌▓È_1
 62
     5
 10
98.140677554199996
 20
-329.14521896600002
 30
0.0
 11
98.140677554199996
 21
-150.14616167439999
 31
0.0
  0
LINE
  5
4AB
  8
┌▓È_1
 62
     5
 10
113.1406775542
 20
-323.94569032020001
 30
0.0
 11
113.1406775542
 21
-155.34569032019999
 31
0.0
  0
LINE
  5
4AC
  8
┌▓È_1
 62
     5
 10
86.140677554199996
 20
-327.14521896600002
 30
0.0
 11
86.140677554199996
 21
-152.14616167439999
 31
0.0
  0
LINE
  5
4AD
  8
┌▓È_1
  6
HIDDEN
 10
-33.403294495300003
 20
-152.1456903202
 30
0.0
 11
-33.403294495300003
 21
-327.1456903202
 31
0.0
  0
LINE
  5
4AE
  8
┌▓È_1
 62
     5
 10
-30.652944960599999
 20
-149.6456903202
 30
0.0
 11
-30.652944960599999
 21
-329.6456903202
 31
0.0
  0
LINE
  5
4AF
  8
┌▓È_1
 62
     5
 10
-31.403294495299999
 20
-152.1456903202
 30
0.0
 11
-31.403294495299999
 21
-327.1456903202
 31
0.0
  0
LINE
  5
4B0
  8
┌▓È_1
 62
     5
 10
-21.652944960599999
 20
-140.6456903202
 30
0.0
 11
-21.652944960599999
 21
-338.6456903202
 31
0.0
  0
DIMENSION
  5
4BF
  8
Éíû@É³
  2
*D32
 10
250.8785431325
 20
-324.64521896600002
 30
0.0
 11
250.8785431325
 21
-239.6456903202
 31
0.0
 70
   128
  1
170
 13
229.46363186229999
 23
-324.64521896600002
 33
0.0
 14
229.46363186229999
 24
-154.64616167439999
 34
0.0
 50
90.0
  0
LINE
  5
4C0
  8
┌▓È_1
 62
     5
 10
176.46363186229999
 20
-152.14616167439999
 30
0.0
 11
176.46363186229999
 21
-327.14521896600002
 31
0.0
  0
LINE
  5
4C1
  8
┌▓È_1
 62
     5
 10
199.46363186229999
 20
-329.14521896600002
 30
0.0
 11
199.46363186229999
 21
-150.14616167439999
 31
0.0
  0
LINE
  5
4C2
  8
┌▓È_1
 62
     5
 10
229.46363186229999
 20
-153.84616167440001
 30
0.0
 11
229.46363186229999
 21
-325.44521896600003
 31
0.0
  0
LINE
  5
4C3
  8
┌▓È_1
 62
     5
 10
178.46363186229999
 20
-152.14616167439999
 30
0.0
 11
178.46363186229999
 21
-327.14521896600002
 31
0.0
  0
LINE
  5
4C4
  8
┌▓È_1
 62
     5
 10
174.46363186229999
 20
-330.44521896600003
 30
0.0
 11
174.46363186229999
 21
-148.84616167440001
 31
0.0
  0
LINE
  5
4C5
  8
┌▓È_1
 62
     5
 10
-677.06111242889995
 20
-659.53692129629985
 30
0.0
 11
-677.06111242889995
 21
-661.53692129629985
 31
0.0
  0
ARC
  5
4C6
  8
┌▓È_1
 62
     5
 10
-677.06111242889995
 20
-743.68037180919998
 30
0.0
 40
2.0
 50
90.0
 51
180.00001020810001
  0
LINE
  5
4C7
  8
┌▓È_1
 62
     5
 10
-679.06111242889995
 20
-755.68037180919987
 30
0.0
 11
-677.06111242889995
 21
-755.68037180919987
 31
0.0
  0
LINE
  5
4C8
  8
┌▓È_1
 62
     5
 10
-679.06111242889995
 20
-743.68037216549999
 30
0.0
 11
-679.06111242889995
 21
-755.68037180919987
 31
0.0
  0
LINE
  5
4C9
  8
┌▓È_1
 62
     5
 10
-677.06111242889995
 20
-743.68037180919998
 30
0.0
 11
-677.06111242889995
 21
-755.68037180919987
 31
0.0
  0
LINE
  5
4CA
  8
┌▓È_1
 62
     5
 10
-677.06111242889995
 20
-659.53692129629985
 30
0.0
 11
-679.06111242889995
 21
-659.53692129629985
 31
0.0
  0
DIMENSION
  5
4D2
  8
Éíû@É³
 62
     5
  2
*D33
 10
-672.43181302469998
 20
-582.10649242999989
 30
0.0
 11
-684.42609231199992
 21
-599.07977206489988
 31
0.0
 70
   131
  1
2-â│15
 15
-659.04021088800005
 25
-575.34890467900004
 35
0.0
 40
0.0
  0
DIMENSION
  5
4E1
  8
Éíû@É³
 62
     5
  2
*D34
 10
-566.31111242889995
 20
-593.92442142990001
 30
0.0
 11
-577.31111242889995
 21
-593.92442142990001
 31
0.0
 70
   128
  1
<>
 13
-566.31111242889995
 23
-609.54061520129994
 33
0.0
 14
-588.31111242889995
 24
-609.54061520129994
 34
0.0
  0
DIMENSION
  5
4F0
  8
Éíû@É³
 62
     5
  2
*D35
 10
-545.81111242889995
 20
-613.04061520129994
 30
0.0
 11
-545.81111242889995
 21
-609.54061520129994
 31
0.0
 70
   128
  1
<>
 13
-569.81111242889995
 23
-613.04061520129994
 33
0.0
 14
-569.81111242889995
 24
-606.04061520129994
 34
0.0
 50
90.0
  0
DIMENSION
  5
4FF
  8
Éíû@É³
  2
*D36
 10
-577.31111242889995
 20
-689.53692257429987
 30
0.0
 11
-539.81111242889995
 21
-689.53692257429987
 31
0.0
 70
   128
  1
<>
 13
-577.31111242889995
 23
-643.04061520129994
 33
0.0
 14
-502.3111124289
 24
-643.04061520129994
 34
0.0
 50
180.0
  0
DIMENSION
  5
50E
  8
Éíû@É³
  2
*D37
 10
-679.06111242889995
 20
-689.53692129629997
 30
0.0
 11
-665.68611242889995
 21
-689.53692129629997
 31
0.0
 70
   128
  1
<>
 13
-679.06111242889995
 23
-659.53692129629985
 33
0.0
 14
-652.31111242889995
 24
-643.04061520129994
 34
0.0
 50
180.0
  0
DIMENSION
  5
51D
  8
Éíû@É³
  2
*D38
 10
-652.31111242889995
 20
-689.53692257429987
 30
0.0
 11
-614.81111242889995
 21
-689.53692257429987
 31
0.0
 70
   128
  1
<>
 13
-652.31111242889995
 23
-643.04061520129994
 33
0.0
 14
-577.31111242889995
 24
-643.04061520129994
 34
0.0
 50
180.0
  0
LINE
  5
51E
  8
┌▓È_1
 62
     5
 10
-679.06111242889995
 20
-659.53692129629985
 30
0.0
 11
-679.06111242889995
 21
-484.53692129629991
 31
0.0
  0
LINE
  5
51F
  8
┌▓È_1
  6
HIDDEN
 10
-677.06111242889995
 20
-484.53692129629991
 30
0.0
 11
-677.06111242889995
 21
-659.53692129629985
 31
0.0
  0
DIMENSION
  5
52E
  8
Éíû@É³
  2
*D39
 10
-352.3111124289
 20
-689.53692257429987
 30
0.0
 11
-314.8111124289
 21
-689.53692257429987
 31
0.0
 70
   128
  1
<>
 13
-352.3111124289
 23
-643.04061520129994
 33
0.0
 14
-277.3111124289
 24
-643.04061520129994
 34
0.0
 50
180.0
  0
DIMENSION
  5
53D
  8
Éíû@É³
  2
*D40
 10
-277.3111124289
 20
-689.53692257429987
 30
0.0
 11
-239.8111124289
 21
-689.53692257429987
 31
0.0
 70
   128
  1
<>
 13
-277.3111124289
 23
-643.04061520129994
 33
0.0
 14
-202.3111124289
 24
-643.04061520129994
 34
0.0
 50
180.0
  0
DIMENSION
  5
54C
  8
Éíû@É³
  2
*D41
 10
-427.3111124289
 20
-689.53692257429987
 30
0.0
 11
-389.8111124289
 21
-689.53692257429987
 31
0.0
 70
   128
  1
<>
 13
-427.3111124289
 23
-643.04061520129994
 33
0.0
 14
-352.3111124289
 24
-643.04061520129994
 34
0.0
 50
180.0
  0
LINE
  5
54D
  8
┌▓È_1
  6
BORDER
 62
     3
 10
-389.81076289410009
 20
-477.53692129629991
 30
0.0
 11
-389.81076289410009
 21
-666.53692129629997
 31
0.0
  0
LINE
  5
54E
  8
┌▓È_1
  6
HIDDEN
 10
-607.90329449529997
 20
-152.1456903202
 30
0.0
 11
-607.90329449529997
 21
-327.1456903202
 31
0.0
  0
LINE
  5
54F
  8
┌▓È_1
 62
     5
 10
-619.65294496059994
 20
-338.6456903202
 30
0.0
 11
-619.65294496059994
 21
-140.6456903202
 31
0.0
  0
LINE
  5
550
  8
┌▓È_1
 62
     5
 10
-610.65294496059994
 20
-329.6456903202
 30
0.0
 11
-610.65294496059994
 21
-149.6456903202
 31
0.0
  0
LINE
  5
551
  8
┌▓È_1
 62
     5
 10
-609.90329449529986
 20
-327.1456903202
 30
0.0
 11
-609.90329449529986
 21
-152.1456903202
 31
0.0
  0
LINE
  5
552
  8
┌▓È_1
  6
BORDER
 62
     3
 10
-320.6529449606
 20
-135.6456903202
 30
0.0
 11
-320.6529449606
 21
-343.6456903202
 31
0.0
  0
DIMENSION
  5
561
  8
Éíû@É³
  2
*D42
 10
-127.3111124289
 20
-689.53692129629997
 30
0.0
 11
-113.9361124289
 21
-689.53692129629997
 31
0.0
 70
   128
  1
<>
 13
-127.3111124289
 23
-643.04061520129994
 33
0.0
 14
-100.5611124289
 24
-659.53692129629985
 34
0.0
 50
180.0
  0
DIMENSION
  5
570
  8
Éíû@É³
  2
*D43
 10
-64.065506960099995
 20
-661.53692129629985
 30
0.0
 11
-64.065506960099995
 21
-650.53876824880001
 31
0.0
 70
   128
  1
22
 13
-102.5611124289
 23
-661.53692129629985
 33
0.0
 14
-116.3111124289
 24
-639.54061520129994
 34
0.0
 50
90.0
  0
DIMENSION
  5
57F
  8
Éíû@É³
  2
*D44
 10
-41.424622560699987
 20
-661.53692129629985
 30
0.0
 11
-41.424622560699987
 21
-572.04061285039995
 31
0.0
 70
   128
  1
<>
 13
-102.5611124289
 23
-661.53692129629985
 33
0.0
 14
-102.5611124289
 24
-482.53692129629991
 34
0.0
 50
90.0
  0
LINE
  5
580
  8
┌▓È_1
  6
HIDDEN
 10
-102.5611124289
 20
-484.53692129629991
 30
0.0
 11
-102.5611124289
 21
-659.53692129629985
 31
0.0
  0
LINE
  5
581
  8
┌▓È_1
 62
     5
 10
-8.6353071650000004
 20
-659.53692129629985
 30
0.0
 11
-8.6353071650000004
 21
-484.53692129629991
 31
0.0
  0
LINE
  5
582
  8
┌▓È_1
 62
     5
 10
-10.635307165
 20
-484.53692264559987
 30
0.0
 11
-10.635307165
 21
-659.53692129629985
 31
0.0
  0
LINE
  5
583
  8
┌▓È_1
 62
     5
 10
46.343364710000003
 20
-484.53692129629991
 30
0.0
 11
46.343364710000003
 21
-659.53692129629985
 31
0.0
  0
LINE
  5
584
  8
┌▓È_1
 62
     5
 10
44.343364710000003
 20
-484.53692129629991
 30
0.0
 11
44.343364710000003
 21
-659.53692129629985
 31
0.0
  0
LINE
  5
585
  8
┌▓È_1
 62
     5
 10
-100.5611124289
 20
-484.53692129629991
 30
0.0
 11
-100.5611124289
 21
-659.53692129629985
 31
0.0
  0
LINE
  5
586
  8
┌▓È_1
 62
     5
 10
83.140677554199996
 20
-148.84569032019999
 30
0.0
 11
83.140677554199996
 21
-239.63755457799999
 31
0.0
  0
DIMENSION
  5
595
  8
Éíû@É³
  2
*D45
 10
2.9530349589
 20
-329.6456903202
 30
0.0
 11
2.9530349589
 21
-239.6456903202
 31
0.0
 70
   128
  1
<>
 13
-30.652944960599999
 23
-329.6456903202
 33
0.0
 14
-30.652944960599999
 24
-149.6456903202
 34
0.0
 50
90.0
  0
LINE
  5
596
  8
┌▓È_1
 62
     5
 10
-677.06111242889995
 20
-661.53692129629985
 30
0.0
 11
-102.5611124289
 21
-661.53692129629985
 31
0.0
  0
LINE
  5
597
  8
┌▓È_1
 62
     5
 10
-677.06111242889995
 20
-482.53692129629991
 30
0.0
 11
-102.5611124289
 21
-482.53692129629991
 31
0.0
  0
LINE
  5
598
  8
┌▓È_1
  6
STITCH
 10
-677.06111242889995
 20
-484.53692129629991
 30
0.0
 11
-102.5611124289
 21
-484.53692129629991
 31
0.0
  0
LINE
  5
599
  8
┌▓È_1
  6
STITCH
 10
-677.06111242889995
 20
-659.53692129629985
 30
0.0
 11
-102.5611124289
 21
-659.53692129629985
 31
0.0
  0
DIMENSION
  5
5A8
  8
Éíû@É³
  2
*D46
 10
-502.3111124289
 20
-689.53692257429987
 30
0.0
 11
-464.8111124289
 21
-689.53692257429987
 31
0.0
 70
   128
  1
<>
 13
-502.3111124289
 23
-643.04061520129994
 33
0.0
 14
-427.3111124289
 24
-643.04061520129994
 34
0.0
 50
180.0
  0
LINE
  5
5A9
  8
┌▓È_1
 62
     5
 10
-457.3111124289
 20
-576.04061520129994
 30
0.0
 11
-472.31111242889989
 21
-576.04061520129994
 31
0.0
  0
LINE
  5
5AA
  8
┌▓È_1
 62
     5
 10
-472.31111242889989
 20
-583.04061520129994
 30
0.0
 11
-457.3111124289
 21
-583.04061520129994
 31
0.0
  0
LINE
  5
5AB
  8
┌▓È_1
 62
     5
 10
-472.31111242889989
 20
-568.04061520129994
 30
0.0
 11
-457.3111124289
 21
-568.04061520129994
 31
0.0
  0
LINE
  5
5AC
  8
┌▓È_1
 62
     5
 10
-457.3111124289
 20
-561.04061520129994
 30
0.0
 11
-472.31111242889989
 21
-561.04061520129994
 31
0.0
  0
LINE
  5
5AD
  8
┌▓È_1
 10
-320.6529449606
 20
-424.69754862389999
 30
0.0
 11
-618.85294496059998
 21
-424.69754862389999
 31
0.0
  0
LINE
  5
5AE
  8
┌▓È_1
 10
-320.6529449606
 20
-410.49754862389989
 30
0.0
 11
-603.45294496060001
 21
-410.49754862389989
 31
0.0
  0
LINE
  5
5AF
  8
┌▓È_1
 10
-619.65294496059994
 20
-400.69754862389988
 30
0.0
 11
-320.6529449606
 21
-400.69754862389988
 31
0.0
  0
LINE
  5
5B0
  8
┌▓È_1
 10
-602.65297804529996
 20
-418.69754862389988
 30
0.0
 11
-320.6529449606
 21
-418.69754862389988
 31
0.0
  0
LINE
  5
5B1
  8
┌▓È_1
 10
-618.85294496059998
 20
-394.69754862389999
 30
0.0
 11
-320.6529449606
 21
-394.69754862389999
 31
0.0
  0
ARC
  5
5B2
  8
┌▓È_1
 62
     5
 10
-463.15329449529997
 20
-232.14938422520001
 30
0.0
 40
3.5
 50
270.0
 51
90.0
  0
ARC
  5
5B3
  8
┌▓È_1
 62
     5
 10
-463.15329449529997
 20
-247.14938422520001
 30
0.0
 40
3.5
 50
270.0
 51
90.0
  0
INSERT
  5
5B5
  8
É}ÿg
  2
CLUMP4
 10
0.0
 20
0.0
 30
0.0
  0
INSERT
  5
5BF
  8
É}ÿg
  2
CLUMP5
 10
0.0
 20
0.0
 30
0.0
  0
INSERT
  5
5C9
  8
É}ÿg
  2
CLUMP6
 10
0.0
 20
0.0
 30
0.0
  0
INSERT
  5
5D2
  8
0
  6
CONTINUOUS
  2
*U85
 10
0.0
 20
0.0
 30
0.0
  0
INSERT
  5
5D3
  8
0
  6
CONTINUOUS
  2
*U86
 10
0.0
 20
0.0
 30
0.0
  0
INSERT
  5
5D4
  8
0
  6
CONTINUOUS
  2
*U87
 10
0.0
 20
0.0
 30
0.0
  0
INSERT
  5
5D5
  8
0
  6
CONTINUOUS
  2
*U88
 10
0.0
 20
0.0
 30
0.0
  0
INSERT
  5
5D6
  8
0
  6
CONTINUOUS
  2
*U89
 10
0.0
 20
0.0
 30
0.0
  0
INSERT
  5
5D7
  8
0
  6
CONTINUOUS
  2
*U90
 10
0.0
 20
0.0
 30
0.0
  0
INSERT
  5
5D9
  8
É}ÿg
  2
CLUMP7
 10
0.0
 20
0.0
 30
0.0
  0
DIMENSION
  5
68B
  8
Éíû@É³
  2
*D51
 10
-64.065506960099995
 20
-609.54061520129994
 30
0.0
 11
-64.065506960099995
 21
-594.54061520129994
 31
0.0
 70
   128
  1
<>
 13
-116.3111124289
 23
-609.54061520129994
 33
0.0
 14
-153.8111124289
 24
-579.54061520129994
 34
0.0
 50
90.0
  0
DIMENSION
  5
69A
  8
Éíû@É³
  2
*D52
 10
-202.3111124289
 20
-689.53692257429987
 30
0.0
 11
-164.8111124289
 21
-689.53692257429987
 31
0.0
 70
   128
  1
<>
 13
-202.3111124289
 23
-643.04061520129994
 33
0.0
 14
-127.3111124289
 24
-643.04061520129994
 34
0.0
 50
180.0
  0
DIMENSION
  5
6A9
  8
Éíû@É³
  2
*D53
 10
-64.065506960099995
 20
-564.54061520129994
 30
0.0
 11
-64.065506960099995
 21
-549.54061520129994
 31
0.0
 70
   128
  1
<>
 13
-153.8111124289
 23
-564.54061520129994
 33
0.0
 14
-116.3111124289
 24
-534.54061520129994
 34
0.0
 50
90.0
  0
DIMENSION
  5
6B8
  8
Éíû@É³
  2
*D54
 10
-64.065506960099995
 20
-579.54061520129994
 30
0.0
 11
-64.065506960099995
 21
-572.04061520129994
 31
0.0
 70
   128
  1
<>
 13
-153.8111124289
 23
-579.54061520129994
 33
0.0
 14
-153.8111124289
 24
-564.54061520129994
 34
0.0
 50
90.0
  0
DIMENSION
  5
6C7
  8
Éíû@É³
  2
*D55
 10
-30.652944960599999
 20
-107.3933480961
 30
0.0
 11
-320.6529449606
 21
-107.3933480961
 31
0.0
 70
   128
  1
<>
 13
-30.652944960599999
 23
-149.6456903202
 33
0.0
 14
-610.65294496059994
 24
-149.6456903202
 34
0.0
  0
DIMENSION
  5
6D6
  8
Éíû@É³
  2
*D56
 10
-21.652944960599999
 20
-88.524337170799996
 30
0.0
 11
-320.6529449606
 21
-88.524337170799996
 31
0.0
 70
   128
  1
<>
 13
-21.652944960599999
 23
-140.6456903202
 33
0.0
 14
-619.65294496059994
 24
-140.6456903202
 34
0.0
  0
DIMENSION
  5
6E5
  8
Éíû@É³
  2
*D57
 10
-100.5611124289
 20
-454.53692129630002
 30
0.0
 11
-389.8111124289
 21
-454.53692129630002
 31
0.0
 70
   128
  1
<>
 13
-100.5611124289
 23
-484.53692129629991
 33
0.0
 14
-679.06111242889995
 24
-484.53692129629991
 34
0.0
  0
LINE
  5
6E6
  8
┌▓È_1
 62
     5
 10
-29.852944960599999
 20
-394.69754862389999
 30
0.0
 11
-320.6529449606
 21
-394.69754862389999
 31
0.0
  0
LINE
  5
6E7
  8
┌▓È_1
 62
     5
 10
-36.352944960599999
 20
-424.69754862389999
 30
0.0
 11
-320.6529449606
 21
-424.69754862389999
 31
0.0
  0
LINE
  5
6E8
  8
┌▓È_1
 62
     5
 10
-607.90329449529997
 20
-329.1456903202
 30
0.0
 11
-33.403294495300003
 21
-329.1456903202
 31
0.0
  0
LINE
  5
6E9
  8
┌▓È_1
  6
STITCH
 10
-607.90329449529997
 20
-327.1456903202
 30
0.0
 11
-33.403294495300003
 21
-327.1456903202
 31
0.0
  0
LINE
  5
6EA
  8
┌▓È_1
  6
STITCH
 10
-607.90329449529997
 20
-152.1456903202
 30
0.0
 11
-33.403294495300003
 21
-152.1456903202
 31
0.0
  0
LINE
  5
6EB
  8
┌▓È_1
 62
     5
 10
-607.90329449529997
 20
-150.1456903202
 30
0.0
 11
-33.403294495300003
 21
-150.1456903202
 31
0.0
  0
LINE
  5
6EC
  8
┌▓È_1
 62
     5
 10
-610.65294496059994
 20
-149.6456903202
 30
0.0
 11
-30.652944960599999
 21
-149.6456903202
 31
0.0
  0
LINE
  5
6ED
  8
┌▓È_1
 62
     5
 10
-619.65294496059994
 20
-140.6456903202
 30
0.0
 11
-21.652944960599999
 21
-140.6456903202
 31
0.0
  0
LINE
  5
6EE
  8
┌▓È_1
  6
BORDER
 62
     3
 10
-624.28998923139989
 20
-239.6456903202
 30
0.0
 11
-18.0303538147
 21
-239.6456903202
 31
0.0
  0
LINE
  5
6EF
  8
┌▓È_1
 62
     5
 10
-30.652944960599999
 20
-329.6456903202
 30
0.0
 11
-610.65294496059994
 21
-329.6456903202
 31
0.0
  0
LINE
  5
6F0
  8
┌▓È_1
 62
     5
 10
-21.652944960599999
 20
-338.6456903202
 30
0.0
 11
-619.65294496059994
 21
-338.6456903202
 31
0.0
  0
LINE
  5
6F1
  8
┌▓È_1
 62
     5
 10
-320.6529449606
 20
-395.69754862389999
 30
0.0
 11
-33.402944960600003
 21
-395.69754862389999
 31
0.0
  0
LINE
  5
6F2
  8
┌▓È_1
 62
     5
 10
-31.402944960599999
 20
-409.69754862389988
 30
0.0
 11
-320.6529449606
 21
-409.69754862389988
 31
0.0
  0
LINE
  5
6F3
  8
┌▓È_1
 62
     5
 10
-320.6529449606
 20
-397.69754862389999
 30
0.0
 11
-33.402944960600003
 21
-397.69754862389999
 31
0.0
  0
LINE
  5
6F4
  8
┌▓È_1
 62
     5
 10
-102.5611137782
 20
-741.68037180919987
 30
0.0
 11
-677.06111242889995
 21
-741.68037180919987
 31
0.0
  0
LINE
  5
6F5
  8
┌▓È_1
 62
     5
 10
-677.06111242889995
 20
-743.68037180919998
 30
0.0
 11
-102.5611124289
 21
-743.68037180919998
 31
0.0
  0
LINE
  5
6F6
  8
┌▓È_1
  6
BORDER
 62
     3
 10
-684.06111242889995
 20
-572.03692129629985
 30
0.0
 11
-95.561112428899989
 21
-572.03692129629985
 31
0.0
  0
ENDSEC
  0
EOF
